<?xml version="1.0" standalone="no"?>
<!DOCTYPE svg PUBLIC "-//W3C//DTD SVG 1.1//EN" "http://www.w3.org/Graphics/SVG/1.1/DTD/svg11.dtd" >
<svg xmlns="http://www.w3.org/2000/svg">
<metadata></metadata>
<defs>
<font id="nexabook" horiz-adv-x="1665" >
<font-face units-per-em="2048" ascent="1434" descent="-614" />
<missing-glyph horiz-adv-x="534" />
<glyph horiz-adv-x="0" />
<glyph horiz-adv-x="682" />
<glyph unicode=" "  horiz-adv-x="534" />
<glyph unicode="&#x09;" horiz-adv-x="534" />
<glyph unicode="&#xa0;" horiz-adv-x="534" />
<glyph unicode="!" horiz-adv-x="518" d="M162 90q0 48 31.5 75t70 27t70 -27t31.5 -75q0 -47 -31.5 -74t-70 -27t-70 27t-31.5 74zM186 313v1121h146v-1121h-146z" />
<glyph unicode="&#x22;" horiz-adv-x="739" d="M154 907v531h127v-531h-127zM461 907v531h125v-531h-125z" />
<glyph unicode="#" horiz-adv-x="1388" d="M76 332v121h219l137 528h-203v117h230l82 336h139l-82 -336h365l84 336h139l-84 -336h209v-117h-238l-135 -528h219v-121h-246l-82 -332h-139l82 332h-364l-82 -332h-140l82 332h-192zM428 449h375l137 536h-373z" />
<glyph unicode="$" horiz-adv-x="1341" d="M76 283l123 63q29 -59 84 -104t122 -70.5t135.5 -38t137.5 -12.5q48 0 94.5 5t97.5 16t93 31.5t77 49t54.5 72t19.5 96.5q0 47 -16.5 85t-47.5 64.5t-71 47t-90 35t-101.5 26t-109.5 23.5q-8 1 -12 2q-69 11 -116 20t-108.5 25t-102.5 34.5t-85 47.5t-70.5 64t-44 84 t-18.5 108q-2 77 27 141.5t77.5 108t115 75t134.5 47.5t141 21v199h134v-199q335 -29 456 -258l-119 -64q-54 96 -168 146.5t-239 50.5q-70 0 -138.5 -13t-135 -41t-106.5 -82.5t-38 -127.5q0 -49 24 -88t59.5 -63.5t96 -45t112 -31.5t130.5 -24q57 -10 95.5 -17.5t92 -20 t90 -24.5t80.5 -31.5t73.5 -40.5t59.5 -50.5t47.5 -63.5t28.5 -78t11 -94q0 -78 -30.5 -144t-81.5 -111t-118.5 -78t-138.5 -49t-145 -19v-201h-132v199q-84 4 -162 23t-151 53.5t-132 91t-95 129.5z" />
<glyph unicode="%" horiz-adv-x="1542" d="M76 1120q0 58 20 113t58 100t100 72t139 27q101 0 175.5 -47t109.5 -116.5t35 -148.5q0 -127 -85 -217t-235 -90q-151 0 -234 89.5t-83 217.5zM207 1124q0 -75 49 -128.5t139 -53.5q86 0 134.5 53t48.5 125q0 73 -49 128t-136 55q-88 0 -137 -53.5t-49 -125.5zM225 0 q146 230 463.5 716t464.5 718h147l-925 -1434h-150zM831 295q0 80 34 148.5t108 114.5t176 46q101 0 175.5 -46t109 -114.5t34.5 -148.5q0 -127 -84.5 -217t-234.5 -90q-151 0 -234.5 90t-83.5 217zM963 299q0 -75 50.5 -131.5t137.5 -56.5q88 0 137 54.5t49 129.5 t-50.5 131.5t-137.5 56.5t-136.5 -54.5t-49.5 -129.5z" />
<glyph unicode="&#x26;" horiz-adv-x="1423" d="M125 395q0 121 77 209t195 127q-111 36 -179 123t-68 199q0 179 140 286t372 107q485 0 485 -361h-127q0 59 -21 103.5t-54.5 71t-82.5 42.5t-97.5 21.5t-107.5 5.5q-94 0 -166.5 -22.5t-115.5 -61t-64.5 -87t-21.5 -103.5q0 -72 37 -126.5t96.5 -83.5t122 -43t125.5 -14 h622v-112h-131v-291q0 -54 8.5 -98.5t27 -82t53 -58.5t81.5 -21v-127q-14 -2 -37 -2q-165 0 -215 178q-53 -87 -180.5 -139.5t-232.5 -52.5q-262 0 -401.5 103.5t-139.5 309.5zM266 393q0 -136 102.5 -211.5t293.5 -75.5q58 0 121 17.5t120.5 50t95 88t37.5 123.5v291h-374 q-105 0 -184.5 -25t-124 -67t-66 -90t-21.5 -101z" />
<glyph unicode="'" horiz-adv-x="432" d="M154 909v531h125v-531h-125z" />
<glyph unicode="(" horiz-adv-x="679" d="M100 561q-18 293 101 559.5t356 421.5l70 -100q-183 -131 -281.5 -344t-103.5 -455q0 -246 96.5 -459.5t288.5 -353.5l-74 -104q-206 134 -323.5 357.5t-129.5 477.5z" />
<glyph unicode=")" horiz-adv-x="675" d="M51 1440l72 100q221 -143 339 -387.5t118 -519.5q0 -265 -116 -507.5t-339 -401.5l-72 106q188 139 285.5 348.5t97.5 448.5q0 264 -93.5 461t-291.5 352z" />
<glyph unicode="*" horiz-adv-x="747" d="M121 1225l33 104l168 -59l-7 174h113l-8 -174l180 57l31 -102l-182 -45l120 -148l-90 -65l-108 157l-111 -157l-90 65l121 148z" />
<glyph unicode="+" horiz-adv-x="1024" d="M100 637v131h344v340h136v-340h344v-131h-344v-348h-136v348h-344z" />
<glyph unicode="," horiz-adv-x="477" d="M141 74q0 35 20 59t48.5 30t57.5 0.5t49 -30t20 -61.5q0 -23 -11.5 -57t-36 -94.5t-40.5 -106.5h-103l58 178q-62 18 -62 82z" />
<glyph unicode="-" horiz-adv-x="1017" d="M145 528v125h727v-125h-727z" />
<glyph unicode="." horiz-adv-x="473" d="M139 78q0 46 30.5 72t67 26t67 -26t30.5 -72t-30.5 -72t-67 -26t-67 26t-30.5 72z" />
<glyph unicode="/" horiz-adv-x="991" d="M51 -168l744 1727h143l-745 -1727h-142z" />
<glyph unicode="0" horiz-adv-x="1398" d="M133 561v311q0 140 48 253.5t128 184.5t180 108.5t209 37.5q86 0 168 -23t154.5 -71.5t127 -116.5t86.5 -164t32 -209v-311q0 -113 -32 -209t-86.5 -164t-127 -116.5t-154.5 -71.5t-168 -23q-109 0 -209 37.5t-180 108.5t-128 184.5t-48 253.5zM272 559 q0 -109 36.5 -196.5t97 -141t135.5 -82t157 -28.5t157 28.5t135.5 82t97 141t36.5 196.5v315q0 86 -24 160t-65.5 126t-96 89t-116 54.5t-126.5 17.5q-81 0 -156 -28.5t-135.5 -82.5t-96.5 -141.5t-36 -194.5v-315z" />
<glyph unicode="1" horiz-adv-x="831" d="M104 0v117h273v1151l-260 -66v119l393 113v-1317h270v-117h-676z" />
<glyph unicode="2" horiz-adv-x="1376" d="M133 0v336q0 92 33 164t87 116.5t129 73.5t151.5 40t162.5 11q54 0 108.5 8t112.5 28.5t102 51.5t72.5 82t28.5 115q0 81 -38.5 142.5t-102 95t-134 49.5t-145.5 16q-59 0 -114 -7.5t-112 -27.5t-98.5 -50.5t-68 -82t-26.5 -117.5h-142q2 91 36 162.5t88 116.5t128 75 t150 42t159 12t159.5 -13.5t149 -45t126 -79t86 -121t32.5 -165.5q0 -90 -32.5 -162t-85.5 -118.5t-126 -77t-150 -43.5t-161 -13q-61 0 -117.5 -7t-115.5 -26.5t-101.5 -49.5t-70 -79.5t-27.5 -113.5v-205h979v-133h-1112z" />
<glyph unicode="3" horiz-adv-x="1357" d="M115 379h137q0 -266 432 -266q191 0 303.5 79.5t112.5 202.5q0 52 -25.5 100t-74 89t-130 65.5t-184.5 24.5h-235v121h225q179 0 291 79t112 185q0 108 -104.5 191t-292.5 83q-54 0 -105.5 -6.5t-107.5 -24.5t-97.5 -46t-68.5 -75.5t-27 -109.5h-139q0 87 33.5 155 t86.5 109.5t126 68.5t145.5 37.5t151.5 10.5q239 0 383.5 -108t144.5 -285q0 -117 -75 -207t-193 -115q128 -26 212.5 -117.5t84.5 -220.5q0 -193 -150.5 -305t-404.5 -112q-82 0 -157 10.5t-151.5 38.5t-132.5 71t-91 114.5t-35 162.5z" />
<glyph unicode="4" horiz-adv-x="1323" d="M47 434l852 1000h160v-990h168v-120h-168v-324h-133v324h-854zM215 444h711v824z" />
<glyph unicode="5" horiz-adv-x="1349" d="M129 403h139q0 -71 27.5 -124t69 -83t100.5 -48.5t112 -24.5t113 -6q194 0 306 91t112 234t-95 226.5t-292 83.5h-559v682h1007v-131h-872v-420h424q135 0 237.5 -33t165.5 -93t94 -139t31 -176q0 -198 -148.5 -326t-408.5 -128q-86 0 -163 11.5t-151.5 41.5t-128.5 75.5 t-87 119t-33 167.5z" />
<glyph unicode="6" horiz-adv-x="1411" d="M158 436v604q0 102 47.5 183.5t127 131t177 75.5t203.5 26q113 0 209.5 -21t173.5 -63.5t122.5 -113.5t49.5 -164h-148q-5 79 -62 132.5t-144 77t-199 23.5q-72 0 -142.5 -16.5t-133 -49.5t-101.5 -90.5t-39 -130.5v-346q44 65 120 109t154.5 62t159.5 18 q85 0 163.5 -14.5t153 -48.5t129.5 -84.5t88 -128.5t33 -175q0 -94 -33 -171t-88 -128t-129.5 -85.5t-154 -50t-164.5 -15.5q-86 0 -167 16t-155.5 51.5t-129.5 87t-88 129t-33 170.5zM301 434q0 -84 38.5 -147.5t102.5 -100t137 -54t152 -17.5q78 0 150 17t136 52.5t102 99 t38 148.5q0 87 -37.5 152t-100.5 101t-135 53.5t-151 17.5q-76 0 -151 -20t-138.5 -58t-103 -101.5t-39.5 -142.5z" />
<glyph unicode="7" horiz-adv-x="1150" d="M66 1294v140h1046l14 -105l-743 -1329h-162l731 1294h-886z" />
<glyph unicode="8" horiz-adv-x="1439" d="M121 391q0 126 86 220t213 128q-124 44 -197 125.5t-73 198.5q0 86 33 155t87.5 114t129 75t154 42.5t165.5 12.5t165 -12.5t154.5 -42t131 -74t89 -114t33.5 -156.5q0 -117 -76.5 -200.5t-203.5 -123.5q128 -34 216.5 -129.5t88.5 -218.5q0 -92 -32.5 -165t-88 -120.5 t-133 -79t-162.5 -44.5t-182 -13q-122 0 -225 22t-189 69.5t-135 132t-49 198.5zM264 389q0 -74 40 -132t106 -92.5t145.5 -52.5t165.5 -18t165 17t145 51.5t105.5 93t39.5 133.5q0 62 -31 113t-80 83.5t-111 54.5t-120.5 31t-112.5 9t-112 -8.5t-121 -30.5t-112 -54 t-80.5 -83.5t-31.5 -114.5zM291 1065q0 -71 42 -125t109.5 -83t138 -42.5t140.5 -13.5t140.5 13.5t138 42.5t109.5 83t42 125q0 75 -36.5 130t-99.5 86t-137 45.5t-159 14.5t-159 -15t-136 -46t-97.5 -86t-35.5 -129z" />
<glyph unicode="9" horiz-adv-x="1415" d="M115 1006q0 94 33 171t88 128t129.5 85.5t154 50t164.5 15.5q86 0 167 -16t155 -51.5t129.5 -87.5t88.5 -129.5t33 -170.5v-604q0 -82 -32 -151.5t-86 -118t-126.5 -82t-152.5 -49.5t-164 -16q-113 0 -210.5 21.5t-175.5 64t-124.5 114t-50.5 164.5h148 q5 -78 63.5 -132.5t147.5 -78.5t200 -24q72 0 144 17t136.5 49.5t105 90.5t40.5 131v346q-64 -95 -186 -141.5t-252 -46.5q-85 0 -163.5 14.5t-153 48.5t-129.5 84.5t-88 128.5t-33 175zM258 1006q0 -87 37.5 -152t100.5 -101t135 -53.5t151 -17.5q76 0 151 20t138.5 58 t103 101.5t39.5 142.5q0 84 -38.5 147.5t-102.5 100t-137 54t-152 17.5q-78 0 -150 -17t-136 -52.5t-102 -99t-38 -148.5z" />
<glyph unicode=":" horiz-adv-x="485" d="M145 78q0 46 30.5 72t67 26t67 -26t30.5 -72q0 -45 -30.5 -70.5t-67 -25.5t-67 25.5t-30.5 70.5zM145 688q0 44 30.5 69.5t67 25.5t67 -25.5t30.5 -69.5q0 -46 -30.5 -72t-67 -26t-67 26t-30.5 72z" />
<glyph unicode=";" horiz-adv-x="485" d="M145 74q0 8 5 18q6 38 36 58t64 18.5t61 -27t27 -69.5q0 -23 -11.5 -57t-36 -94.5t-40.5 -106.5h-103l58 178q-60 18 -60 82zM145 688q0 44 30.5 69.5t67 25.5t67 -25.5t30.5 -69.5q0 -46 -30.5 -72t-67 -26t-67 26t-30.5 72z" />
<glyph unicode="&#x3c;" horiz-adv-x="749" d="M98 614v68l443 403l86 -96l-375 -340l381 -342l-92 -94z" />
<glyph unicode="=" horiz-adv-x="1140" d="M154 369v129h833v-129h-833zM154 793v129h833v-129h-833z" />
<glyph unicode="&#x3e;" horiz-adv-x="749" d="M117 305l381 344l-375 344l86 92l442 -403v-68l-442 -401z" />
<glyph unicode="?" horiz-adv-x="1228" d="M72 1030q0 111 45 195.5t122 133t169 72t196 23.5q85 0 160.5 -12.5t147.5 -43.5t123.5 -78.5t82.5 -121.5t31 -168q0 -49 -7 -91t-22.5 -75t-31 -59t-42 -48t-45.5 -36.5t-51.5 -29.5t-50 -22.5t-49.5 -19.5q-14 -5 -21 -8q-56 -19 -89.5 -35.5t-59.5 -39.5t-38 -56.5 t-18 -78t-6 -112.5h-139q0 137 30.5 221t93 133t175.5 85q51 17 85 34.5t69.5 48t53.5 78.5t18 113q0 58 -17 104.5t-48 77.5t-69 52.5t-85 33t-91 16.5t-92 5q-55 0 -107 -8.5t-104 -29.5t-91 -53t-63 -83.5t-24 -116.5h-141zM459 94q0 47 31.5 74t68.5 27t68.5 -27 t31.5 -74q0 -49 -31.5 -76.5t-68.5 -27.5t-68.5 27.5t-31.5 76.5z" />
<glyph unicode="@" horiz-adv-x="1835" d="M109 596q0 172 60 320.5t166 255t259 167t332 60.5q184 0 331 -47t255 -142.5t166.5 -249t58.5 -356.5q0 -116 -31 -227.5t-97.5 -192t-152.5 -80.5q-64 0 -112 44.5t-48 127.5q-60 -95 -165 -148.5t-218 -53.5q-106 0 -201 39.5t-164 107.5t-109 163.5t-40 201.5 q0 225 147.5 368.5t366.5 143.5q117 0 221 -55t160 -154l4 158l115 -3v-753q0 -35 13.5 -52.5t35.5 -17.5q41 0 72.5 46.5t47.5 114t24 125.5t8 97q0 148 -32 262.5t-90 192t-144.5 127t-190 71t-231.5 21.5q-197 0 -354 -86t-245.5 -242t-88.5 -354q0 -204 89.5 -356.5 t243.5 -231t351 -78.5q160 0 313 78l59 -96q-166 -100 -372 -100q-239 0 -423.5 96t-287 274.5t-102.5 413.5zM532 586q0 -158 109.5 -270.5t271.5 -112.5q74 0 136.5 21t106.5 57.5t75 85.5t46 105t15 116q0 75 -24 142.5t-69.5 122t-119.5 86.5t-166 32 q-166 0 -273.5 -107.5t-107.5 -277.5z" />
<glyph unicode="A" horiz-adv-x="1515" d="M43 0l643 1434h143l644 -1434h-152l-147 332h-832l-147 -332h-152zM399 463h717l-358 815z" />
<glyph unicode="B" horiz-adv-x="1441" d="M199 0v1434h610q98 0 181.5 -22t151.5 -67.5t107 -123.5t39 -181q0 -105 -60.5 -187.5t-164.5 -117.5q125 -35 196.5 -134.5t71.5 -213.5q0 -86 -30 -154t-79 -111t-118 -71t-141.5 -39.5t-153.5 -11.5h-610zM342 135h467q68 0 129.5 12t120.5 38.5t94 79t35 124.5 q0 58 -22 105.5t-58.5 79t-85 53.5t-99.5 31.5t-104 9.5h-477v-533zM342 799h477q67 0 124 14t103 42t72.5 76t26.5 111q0 69 -27.5 120t-75 80.5t-106 43.5t-127.5 14h-467v-501z" />
<glyph unicode="C" horiz-adv-x="1452" d="M109 709q0 119 29 228t89.5 203.5t147.5 164t210 109.5t269 40q149 0 283 -54.5t225 -160.5l-88 -88q-175 172 -420 172q-145 0 -261.5 -50.5t-189.5 -136.5t-112 -195t-39 -230q0 -127 38.5 -235.5t112 -190t189.5 -128t262 -46.5q119 0 232 45.5t198 130.5l92 -92 q-218 -218 -522 -218q-181 0 -325 58t-234.5 159t-138 232t-47.5 283z" />
<glyph unicode="D" horiz-adv-x="1531" d="M199 0v1434h506q141 0 260.5 -39.5t202.5 -106.5t141.5 -157.5t86 -191.5t27.5 -208q0 -111 -26 -215t-83 -198.5t-139 -164.5t-203 -111.5t-267 -41.5h-506zM342 133h363q116 0 213.5 34.5t163.5 93t112 136.5q46 79 66 163q18 77 18 157v16q-2 108 -38.5 206.5 t-105 180t-179.5 130t-250 48.5h-363v-1165z" />
<glyph unicode="E" horiz-adv-x="1341" d="M199 0v1434h1009v-136h-866v-514h827v-133h-827v-516h885v-135h-1028z" />
<glyph unicode="F" horiz-adv-x="1284" d="M199 0v1434h981v-136h-838v-544h807v-136h-807v-618h-143z" />
<glyph unicode="G" horiz-adv-x="1529" d="M109 709q0 217 90.5 387.5t260.5 266.5q165 93 379 93h13h10q140 0 272 -52q136 -54 244 -161l-86 -92q-85 85 -201.5 128.5t-238.5 43.5q-115 0 -213 -32.5t-168.5 -90t-120 -135t-74 -167.5t-24.5 -187q0 -95 23.5 -182t72.5 -162t119 -130t169 -86.5t216 -31.5 q235 0 412 155v363h-469v133h606v-555q-224 -235 -549 -235q-182 0 -326 59t-234 161t-136.5 231.5t-46.5 277.5z" />
<glyph unicode="H" horiz-adv-x="1552" d="M199 0v1434h143v-664h868v664h144v-1434h-144v635h-868v-635h-143z" />
<glyph unicode="I" horiz-adv-x="540" d="M199 0v1434h143v-1434h-143z" />
<glyph unicode="J" horiz-adv-x="1400" d="M53 555h144q0 -200 121 -319t317 -119q199 0 319.5 118t120.5 324v741h-526v134h670v-875q0 -265 -162 -421t-422 -156q-256 0 -419 156.5t-163 416.5z" />
<glyph unicode="K" horiz-adv-x="1241" d="M199 0v1434h143v-646l666 646h170v-11l-699 -678l760 -735v-10h-178l-719 694v-694h-143z" />
<glyph unicode="L" horiz-adv-x="1173" d="M199 0v1434h143v-1299h797v-135h-940z" />
<glyph unicode="M" horiz-adv-x="1796" d="M199 0v1434h176l524 -791l518 791h180v-1434h-143v1223l-534 -787h-41l-537 797v-1233h-143z" />
<glyph unicode="N" horiz-adv-x="1550" d="M199 0v1434h90l928 -1164l-9 475v689h144v-1434h-86l-928 1153l4 -424v-729h-143z" />
<glyph unicode="O" d="M106 715q0 151 49 286t139.5 237t230.5 161q135 57 298 57h11h13q133 0 248 -38q120 -40 204.5 -111.5t143.5 -166.5t87.5 -203.5t28.5 -223.5q0 -114 -28.5 -221.5t-88 -202t-144 -165t-204.5 -110.5q-114 -39 -247 -39h-13.5h-12.5q-133 1 -249 39q-120 40 -205 111 t-144.5 166t-88 202.5t-28.5 221.5zM250 713q2 -120 39 -227t107 -192.5t183 -135.5q109 -48 244 -47h10.5h11.5q135 0 243 48q113 50 183 136t107 193t37 225q0 96 -22.5 185.5t-70 167.5t-115 135t-163.5 89q-90 31 -197 31h-13h-11q-133 1 -243 -45q-114 -48 -186 -132 q-70 -83 -108 -194q-36 -105 -36 -224v-13z" />
<glyph unicode="P" horiz-adv-x="1390" d="M199 0v1434h641q153 0 265.5 -71t163 -177t50.5 -230.5t-50.5 -230.5t-163 -177t-265.5 -71h-498v-477h-143zM342 612h498q81 0 147 29.5t106 77.5t62 110t22 126t-22 126t-62 110t-106 77.5t-147 29.5h-498v-686z" />
<glyph unicode="Q" horiz-adv-x="1669" d="M106 727q0 115 29 221.5t89 199t145 161t204.5 108t260.5 39.5q143 0 263 -39.5t204.5 -108.5t144 -162t87.5 -200.5t28 -224.5q0 -131 -41 -256.5t-119 -226.5l178 -175l-98 -102l-181 176q-182 -152 -466 -155q-144 2 -265 42t-206 109.5t-144.5 163t-86.5 202.5 q-26 102 -26 212v16zM250 725q0 -97 22.5 -185.5t70 -165t115.5 -133t164.5 -89.5t211.5 -35q142 2 256 53t184.5 135.5t106.5 191.5q34 101 34 214v12q0 124 -36.5 231t-106.5 189.5t-183 130t-255 47.5q-176 0 -310.5 -81.5t-204 -216t-69.5 -298.5z" />
<glyph unicode="R" horiz-adv-x="1449" d="M199 0v1434h643q115 0 207 -37t150 -100t88 -144.5t30 -173.5q0 -86 -25 -161t-76 -136t-135.5 -99t-195.5 -44l489 -539h-186l-475 528h-371v-528h-143zM342 664h492q166 0 253 87t87 228t-86 230t-246 89h-500v-634z" />
<glyph unicode="S" horiz-adv-x="1351" d="M84 295l125 67q68 -129 197 -188t276 -59q58 0 112.5 6.5t113.5 25t102.5 48t71.5 80t28 116.5q0 41 -13 75t-34 59.5t-56 46.5t-68.5 35.5t-83 27.5t-88.5 21t-95 18q-55 10 -90 17t-86 19t-84 23t-74.5 29t-68 37t-54.5 46t-44 58t-26 70.5t-10 85.5v10q-1 81 31 147 q34 70 88.5 114t128.5 73t147.5 41t149.5 12q375 0 534 -250l-120 -67q-56 93 -170.5 137.5t-241.5 44.5q-73 0 -138.5 -12t-128 -39.5t-99.5 -81.5t-37 -129q0 -41 14 -74.5t43.5 -58t62 -42.5t84.5 -32.5t95 -24t108 -20.5q56 -10 95.5 -17.5t91 -20t88 -25t79.5 -31.5 t72 -40.5t58 -50.5t46.5 -63t28 -77t10.5 -93q0 -93 -35 -166.5t-91 -119t-133 -74.5t-154 -40.5t-160 -11.5q-126 0 -237.5 30.5t-210 104t-150.5 183.5z" />
<glyph unicode="T" horiz-adv-x="1220" d="M33 1298v136h1155v-136h-506v-1298h-143v1298h-506z" />
<glyph unicode="U" horiz-adv-x="1503" d="M182 553v881h144v-881q0 -200 121.5 -320t308.5 -120q83 0 157.5 27t134.5 79.5t95 138.5t35 195v881h143v-881q0 -141 -44.5 -252t-122.5 -180t-179 -105t-219 -36q-119 0 -221.5 36t-182 105t-125 180t-45.5 252z" />
<glyph unicode="V" horiz-adv-x="1478" d="M51 1434h158l532 -1280l525 1280h159l-604 -1438h-159z" />
<glyph unicode="W" horiz-adv-x="2211" d="M63 1434h162l418 -1241l418 1241h90l418 -1241l420 1241h159l-508 -1438h-145l-215 616l-174 543l-172 -541l-215 -618h-148z" />
<glyph unicode="X" horiz-adv-x="1273" d="M25 0v4l518 729l-486 697v4h160l217 -310l203 -303l211 312l213 301h156v-4l-486 -697l518 -729v-4h-168l-233 332l-211 315l-223 -330l-226 -317h-163z" />
<glyph unicode="Y" horiz-adv-x="1357" d="M55 1430v4h166l457 -717l463 717h168v-4l-559 -852v-578h-144v578z" />
<glyph unicode="Z" horiz-adv-x="1220" d="M45 0v74l877 1226h-797v134h1016v-62l-891 -1233h891v-139h-1096z" />
<glyph unicode="[" horiz-adv-x="653" d="M182 -348v1808h398v-129h-261v-1554h261v-125h-398z" />
<glyph unicode="\" horiz-adv-x="993" d="M53 1559h146l743 -1727h-143z" />
<glyph unicode="]" horiz-adv-x="653" d="M74 -217h258v1550h-258v129h397v-1808h-397v129z" />
<glyph unicode="^" horiz-adv-x="1214" d="M102 764l445 670h117l448 -670l-4 -8h-145l-357 544l-362 -544h-138z" />
<glyph unicode="_" horiz-adv-x="1247" d="M143 -45h961v-123h-961v123z" />
<glyph unicode="`" horiz-adv-x="479" d="M47 1430v4h168l152 -254v-9h-129z" />
<glyph unicode="a" horiz-adv-x="1298" d="M94 506q0 155 70 274.5t187 182.5t261 63q123 0 234.5 -56t167.5 -159v201h129v-1012h-127v201q-63 -108 -174 -164.5t-232 -56.5q-220 0 -368 145t-148 381zM231 506q0 -176 110.5 -286.5t274.5 -110.5q94 0 170.5 34t123.5 89.5t72.5 127t25.5 145.5t-25.5 145.5 t-72.5 127t-123.5 89.5t-170.5 34q-164 0 -274.5 -110t-110.5 -285z" />
<glyph unicode="b" horiz-adv-x="1300" d="M160 0v1440h137v-631q55 107 163 163q105 54 225 54h9h14q135 0 244 -57q115 -60 183.5 -181t68.5 -284q0 -164 -68 -284t-182.5 -180t-259.5 -60q-130 0 -229.5 49t-167.5 164l-8 -193h-129zM301 506q0 -175 109.5 -285t275.5 -110q164 0 272.5 104.5t108.5 288.5 q0 185 -108.5 289t-272.5 104q-163 0 -274 -110t-111 -281z" />
<glyph unicode="c" horiz-adv-x="1056" d="M94 504q0 162 70.5 282t188 180t265.5 60q210 0 359 -149l-90 -89q-112 109 -266 109q-167 0 -278.5 -105.5t-111.5 -287.5q0 -185 110.5 -289t276.5 -104q167 0 281 114l94 -92q-156 -153 -375 -153q-108 0 -203 35.5t-166.5 101.5t-113 166t-41.5 221z" />
<glyph unicode="d" horiz-adv-x="1300" d="M96 504q0 163 68 284t183 181q110 57 245 57h14h9q120 0 225 -54q109 -56 164 -163v623h137v-1432h-133l-4 201q-60 -107 -166.5 -164t-231.5 -57q-145 0 -259.5 60t-182.5 180t-68 284zM233 504q0 -184 108 -288.5t273 -104.5t274 110t109 285q0 171 -110 281t-273 110 q-165 0 -273 -104t-108 -289z" />
<glyph unicode="e" horiz-adv-x="1200" d="M94 506q0 228 146 376q143 145 360 144h12h12q108 0 200 -33q96 -35 167 -105t105 -184q24 -81 24 -177q0 -39 -4 -81h-880q12 -156 119.5 -245.5t262.5 -89.5q96 0 194.5 37t148.5 102l92 -82q-72 -91 -190 -139.5t-245 -48.5q-229 0 -376.5 144t-147.5 382zM236 563 h751q-4 161 -109 251.5t-264 90.5q-156 0 -257 -89t-121 -253z" />
<glyph unicode="f" horiz-adv-x="761" d="M70 883v118h200v84q0 170 81.5 264.5t242.5 94.5q120 0 217 -72l-59 -102q-85 51 -156 51q-188 0 -188 -236v-84h323v-118h-323v-883h-138v883h-200z" />
<glyph unicode="g" horiz-adv-x="1251" d="M96 530q0 119 47 216t124 156.5t169.5 91.5t190.5 32q79 0 161.5 -20.5t137.5 -59.5l106 127l94 -78l-108 -129q66 -73 100.5 -148.5t34.5 -187.5q0 -143 -79 -262.5t-226 -161.5q145 -39 222 -122t77 -209q0 -92 -43.5 -166.5t-116.5 -121.5t-165.5 -72t-194.5 -25 q-224 0 -368 112t-144 305h137q0 -91 54 -157t137 -96.5t184 -30.5q73 0 138.5 14.5t121 43.5t88.5 79t33 115q0 64 -32.5 115t-87.5 81.5t-121.5 46t-139.5 15.5q-238 0 -384.5 132.5t-146.5 364.5zM236 530q0 -181 109 -275.5t282 -94.5t281 107t108 263q0 91 -32.5 163.5 t-87.5 116t-124 66.5t-145 23q-72 0 -140 -22.5t-125 -66t-91.5 -116.5t-34.5 -164z" />
<glyph unicode="h" horiz-adv-x="1216" d="M160 0v1434h135v-598q113 187 352 190q206 0 314 -124.5t108 -334.5v-567h-137v567q0 157 -75 242.5t-226 85.5q-146 0 -240 -100.5t-94 -249.5v-545h-137z" />
<glyph unicode="i" horiz-adv-x="456" d="M133 1329q0 45 29 70.5t67 25.5q40 0 69.5 -25.5t29.5 -70.5q0 -46 -29.5 -71t-69.5 -25q-39 0 -67.5 25t-28.5 71zM160 0v1016h137v-1016h-137z" />
<glyph unicode="j" horiz-adv-x="456" d="M-176 -449l43 113q70 -37 145 -37q40 0 68 12.5t43.5 31t24 51t10.5 62t2 75.5v1155h137v-1155q0 -85 -13 -148.5t-43.5 -114t-87 -76.5t-137.5 -26q-100 0 -192 57zM131 1337q0 45 29 71t67 26q40 0 69.5 -26t29.5 -71q0 -46 -29.5 -71t-69.5 -25q-39 0 -67.5 25 t-28.5 71z" />
<glyph unicode="k" horiz-adv-x="987" d="M160 0v1434h135v-856l442 434h174v-8l-485 -469l545 -527v-8h-176l-500 485v-485h-135z" />
<glyph unicode="l" horiz-adv-x="485" d="M174 0v1434h137v-1434h-137z" />
<glyph unicode="m" horiz-adv-x="1902" d="M160 0v1016h129l6 -162q88 172 313 172q79 0 145 -20t124.5 -73t87.5 -136q49 116 146.5 172.5t217.5 56.5q193 0 309.5 -117.5t116.5 -318.5v-590h-137v590q0 137 -79.5 224t-211.5 87t-215.5 -90t-83.5 -225v-586h-137v586q0 135 -82.5 225t-214.5 90t-214.5 -90 t-82.5 -225v-586h-137z" />
<glyph unicode="n" horiz-adv-x="1245" d="M160 0v1012h131l4 -170q43 72 111 117q66 45 140 59q54 10 107 9q19 0 39 -1q72 -5 135 -27q126 -42 198.5 -154t72.5 -276v-569h-140v567q0 162 -86.5 247t-242.5 85q-146 0 -239 -100.5t-93 -247.5v-551h-137z" />
<glyph unicode="o" horiz-adv-x="1228" d="M94 500q0 234 146 380t374 146q224 0 372.5 -147t148.5 -379q0 -233 -146.5 -376.5t-374.5 -143.5q-224 0 -372 144t-148 376zM231 500q0 -177 107 -284t276 -107q171 0 277 107t106 284t-107.5 289t-275.5 112q-169 0 -276 -112t-107 -289z" />
<glyph unicode="p" horiz-adv-x="1300" d="M160 -483v1495h133l4 -215q60 109 169 169q106 60 237 60h4q218 -5 357.5 -146t139.5 -374q0 -243 -143 -384.5t-369 -141.5q-123 0 -230.5 57t-166.5 168v-688h-135zM307 504q0 -168 107.5 -279.5t271.5 -111.5q166 0 273.5 104t107.5 289q0 184 -106 286.5t-275 102.5 q-166 0 -272.5 -111t-106.5 -280z" />
<glyph unicode="q" horiz-adv-x="1300" d="M96 506q0 233 140 374t358 146h4q131 0 238 -60q108 -60 168 -169l4 215h133v-1495h-135v688q-59 -111 -166.5 -168t-231.5 -57q-226 0 -369 141.5t-143 384.5zM233 506q0 -185 107.5 -289t273.5 -104q163 0 271 112t108 279q0 169 -106.5 280t-272.5 111 q-169 0 -275 -102.5t-106 -286.5z" />
<glyph unicode="r" horiz-adv-x="856" d="M160 0v1012h129l8 -166q31 65 85.5 107.5t112 58.5t123.5 16q68 0 121 -16.5t109 -55.5l-64 -114q-77 53 -174 53q-132 0 -222.5 -91.5t-90.5 -228.5v-575h-137z" />
<glyph unicode="s" horiz-adv-x="1021" d="M76 176l86 94q62 -82 159.5 -122t204.5 -42q48 0 92.5 7.5t88 25.5t70 53t26.5 84q0 39 -16 68t-39 46.5t-65.5 31t-78 20.5t-94.5 15q-68 9 -117 19.5t-106 32t-92.5 49.5t-59.5 74.5t-24 106.5q0 72 35 129t94 91t130 51.5t148 17.5q233 0 381 -137l-80 -90 q-66 61 -136 81.5t-163 20.5q-118 1 -198 -41q-76 -40 -76 -112v-7q0 -42 24 -73t69 -48.5t85.5 -27t97.5 -16.5q164 -25 235 -51q181 -74 183 -253q-2 -77 -38 -135.5t-95.5 -92t-130.5 -50t-152 -16.5q-138 0 -255.5 48t-192.5 148z" />
<glyph unicode="t" horiz-adv-x="802" d="M72 887v117h207v292l137 15v-307h327v-117h-327v-565q0 -105 37.5 -158t134.5 -53q64 0 147 39l43 -115q-104 -49 -194 -49h-5q-300 0 -300 336v565h-207z" />
<glyph unicode="u" horiz-adv-x="1241" d="M158 442v570h137v-568q1 -160 83 -245q82 -84 232 -84h4q145 0 238.5 99t93.5 247v551h135v-1012h-127l-4 170q-61 -95 -154 -141.5t-204 -48.5q-198 0 -316 124.5t-118 337.5z" />
<glyph unicode="v" horiz-adv-x="1134" d="M66 1012h151l350 -862l351 862h151l-426 -1014h-151z" />
<glyph unicode="w" horiz-adv-x="1705" d="M74 1012h151l287 -862l287 862h108l287 -862l285 862h151l-356 -1014h-156l-149 408l-115 382l-117 -385l-149 -405h-156z" />
<glyph unicode="x" horiz-adv-x="1003" d="M35 0v4l381 516l-355 486v6h164l277 -398l274 398h166v-6l-354 -486l381 -516v-4h-164l-303 424l-303 -424h-164z" />
<glyph unicode="y" horiz-adv-x="1114" d="M72 1012h153l215 -559l113 -291l115 291l235 559h152l-641 -1495h-150l213 495z" />
<glyph unicode="z" horiz-adv-x="954" d="M63 0v51l605 836h-570v125h772v-60l-598 -821h600v-131h-809z" />
<glyph unicode="{" horiz-adv-x="651" d="M76 547v106q49 0 81.5 19.5t47.5 55t20.5 70t5.5 79.5v278q0 184 80 257.5t267 37.5v-100q-126 20 -169.5 -22t-43.5 -175v-276q0 -36 -1 -58t-5 -54.5t-13.5 -54.5t-25 -45.5t-41 -39.5t-60.5 -25q41 -11 69.5 -33.5t43 -47t22.5 -62.5t9.5 -65t1.5 -70v-295 q0 -130 43.5 -169.5t169.5 -19.5v-106q-55 -8 -99 -9t-79 6.5t-61 20.5t-44.5 36t-31 51t-19.5 67t-10 81t-3 97v240q0 45 -5.5 80t-20.5 70.5t-47.5 55t-81.5 19.5z" />
<glyph unicode="|" horiz-adv-x="503" d="M182 -225v1693h140v-1693h-140z" />
<glyph unicode="}" horiz-adv-x="651" d="M76 -172q127 -20 169 17.5t42 170.5v295q0 36 1 57.5t5 55t13.5 55.5t25 46t41.5 40t61 25q-30 8 -53.5 21.5t-39 28.5t-26 38.5t-16 42t-8.5 47.5t-3.5 47.5t-0.5 50.5v277q0 132 -44 174t-167 22v101q187 34 265.5 -38.5t78.5 -256.5v-279q0 -45 6 -80t21.5 -70.5 t48.5 -55t82 -19.5v-106q-49 0 -82 -19.5t-48.5 -54.5t-21.5 -70t-6 -80v-241q0 -55 -2.5 -97t-9.5 -81.5t-19 -67t-30.5 -50.5t-44 -36.5t-60 -21t-79 -6.5t-99.5 9v109z" />
<glyph unicode="~" horiz-adv-x="1290" d="M154 584q53 141 163 187t228 -17l243 -121q190 -84 246 108l107 -36q-48 -148 -144.5 -197.5t-238.5 8.5l-242 123q-91 47 -158 22t-104 -118z" />
<glyph unicode="&#xa1;" horiz-adv-x="481" d="M135 915q0 47 31.5 74t70 27t70 -27t31.5 -74q0 -49 -31.5 -76.5t-70 -27.5t-70 27.5t-31.5 76.5zM168 -428v1122h145v-1122h-145z" />
<glyph unicode="&#xa2;" horiz-adv-x="1097" d="M96 483q0 210 127 350.5t330 165.5v129h133v-129q175 -21 307 -147l-88 -88q-124 115 -282 115q-166 0 -279 -106.5t-113 -289.5t112.5 -287t279.5 -104q153 0 280 121l90 -98q-133 -127 -307 -148v-145h-133v147q-201 26 -329 162t-128 352z" />
<glyph unicode="&#xa3;" horiz-adv-x="1329" d="M121 0v133q137 121 173 233t13 246h-186v119h160q-2 7 -11.5 43t-12.5 48.5t-10 44.5t-10 52t-5.5 49t-2.5 56q0 138 67 235.5t177.5 143t253.5 45.5q99 0 180 -20t147 -63.5t104 -120t40 -181.5h-129q-8 260 -342 260q-164 0 -263 -80t-99 -219q0 -18 1.5 -38t3 -35.5 t5.5 -38.5t6 -35t7.5 -38t7.5 -34.5t9.5 -38t8.5 -35.5h512v-119h-486q45 -309 -157 -483h927v-129h-1089z" />
<glyph unicode="&#xa4;" horiz-adv-x="1234" d="M154 291l122 121q-81 112 -80 248.5t80 248.5l-122 121l102 103l119 -123q106 69 243 69q134 0 240 -69l123 123l100 -103l-120 -119q77 -109 76 -251t-79 -248l123 -121l-100 -101l-125 123q-98 -67 -240 -67q-138 0 -239 67l-121 -123zM322 662q0 -78 33 -145 t101.5 -111t159.5 -44q94 0 163 44t100.5 110.5t31.5 145.5q0 124 -77.5 212.5t-217.5 88.5q-136 0 -215 -89t-79 -212z" />
<glyph unicode="&#xa5;" horiz-adv-x="1378" d="M63 1430v4h166l457 -721l463 721h168v-4l-492 -750h246v-113h-313v-123h313v-112h-313v-332h-144v332h-321v112h321v123h-321v113h254z" />
<glyph unicode="&#xa6;" horiz-adv-x="497" d="M182 -182v747h133v-747h-133zM182 700v748h133v-748h-133z" />
<glyph unicode="&#xa7;" horiz-adv-x="1148" d="M117 162l96 90q63 -82 160 -122t207 -40q50 0 99 8.5t95.5 27t76.5 53t32 81.5q1 29 -8.5 52.5t-32 39.5t-46.5 27t-63 19.5t-69.5 13.5t-77.5 12q-10 1 -15 2q-426 47 -426 285q0 72 51 138.5t138 94.5q-184 62 -184 230q0 76 39 134t104 90.5t138.5 48t154.5 15.5 q252 0 397 -139l-88 -84q-69 58 -142 79t-169 21q-125 0 -210 -41.5t-85 -121.5q0 -30 12.5 -54t37 -40.5t50 -28.5t63 -20.5t64 -13t64.5 -9.5q56 -6 101.5 -13.5t101.5 -21.5t97 -35.5t76.5 -51.5t52.5 -73.5t13 -97.5q-4 -90 -57.5 -145t-143.5 -76q97 -28 151 -88 t50 -152q-4 -81 -47.5 -141.5t-112 -91.5t-140 -45.5t-147.5 -14.5q-142 0 -265 51t-193 148zM285 715q0 -44 33 -79.5t86 -54.5t117 -28.5t128 -2t117 26t86 56t33 86.5q0 44 -33.5 80.5t-87 56.5t-118 31t-129 4t-117 -26t-85 -58t-30.5 -92z" />
<glyph unicode="&#xa8;" horiz-adv-x="931" d="M129 1376q0 56 45 79t90 0t45 -79q0 -43 -28 -67.5t-62 -24.5t-62 24.5t-28 67.5zM586 1376q0 56 45 79t90 0t45 -79q0 -43 -28 -67.5t-62 -24.5t-62 24.5t-28 67.5z" />
<glyph unicode="&#xa9;" horiz-adv-x="1708" d="M113 715q0 123 31.5 234.5t94 205t150.5 162t208 107t259 38.5t258 -38.5t206.5 -107t150 -162t93.5 -205t31 -234.5q0 -122 -31 -233.5t-93.5 -205t-150 -163t-206.5 -108t-258 -38.5q-173 0 -315.5 59.5t-235 162.5t-142.5 238t-50 288zM244 715q0 -132 42 -246 t118.5 -199.5t193 -134.5t258.5 -49q188 0 327.5 85t209 226t69.5 318q0 133 -41 247.5t-116.5 200.5t-191 135.5t-257.5 49.5t-258.5 -49.5t-193 -135t-118.5 -201t-42 -247.5zM477 719q0 173 116.5 286t289.5 113q169 0 282 -119l-86 -86q-85 82 -196 82 q-119 0 -200 -78.5t-81 -197.5q0 -118 81.5 -196.5t199.5 -78.5q112 0 196 84l88 -88q-121 -121 -284 -121q-173 0 -289.5 113.5t-116.5 286.5z" />
<glyph unicode="&#xaa;" horiz-adv-x="1015" d="M139 1106q0 159 96.5 249.5t243.5 90.5q74 0 141 -33.5t107 -95.5v119h115v-664h-113l-2 121q-40 -64 -107.5 -98.5t-142.5 -34.5q-145 0 -241.5 93.5t-96.5 252.5zM182 508v125h670v-125h-670zM264 1106q0 -101 64.5 -165t158.5 -64q54 0 97.5 19.5t70 51.5t41 73 t14.5 84t-14.5 84t-41 73t-70 51.5t-97.5 19.5q-94 0 -158.5 -63t-64.5 -164z" />
<glyph unicode="&#xab;" horiz-adv-x="890" d="M96 608l285 449h145v-6l-278 -443q28 -44 90 -141t106 -169t82 -142h-145zM358 608l283 449h147v-6l-278 -443l278 -452h-147z" />
<glyph unicode="&#xac;" horiz-adv-x="1046" d="M154 623v129h735v-406h-131v277h-604z" />
<glyph unicode="&#xad;" horiz-adv-x="0" />
<glyph unicode="&#xae;" horiz-adv-x="1703" d="M113 715q0 153 49.5 288t141.5 237.5t233.5 162t314.5 59.5t315 -59.5t233.5 -162t141 -237.5t49.5 -288t-49.5 -288t-141 -238t-233.5 -162.5t-315 -59.5q-139 0 -258 38.5t-206.5 108t-150 163t-93.5 205t-31 233.5zM244 715q0 -178 70.5 -319.5t210.5 -226.5t327 -85 t327 85t210.5 226.5t70.5 319.5t-70.5 319.5t-210.5 226.5t-327 85t-327 -85t-210.5 -226.5t-70.5 -319.5zM573 334v776h351q69 0 124 -24.5t85.5 -64.5t47 -89t8.5 -99t-31 -93.5t-70 -75t-109 -39.5l231 -267v-24h-129l-237 280h-154v-280h-117zM690 721h230q40 0 72 15.5 t48.5 40t24.5 54t0.5 59t-23 54t-47 40t-71.5 15.5h-234v-278z" />
<glyph unicode="&#xaf;" horiz-adv-x="833" d="M72 1321v117h665v-117h-665z" />
<glyph unicode="&#xb0;" horiz-adv-x="663" d="M113 1270q1 55 25.5 102.5t76.5 79t121 31.5t120 -31.5t74 -79t23.5 -102.5t-22.5 -102.5t-74 -79t-121 -31.5q-73 0 -126 31.5t-75.5 79t-21.5 102.5zM211 1269q-1 -46 32 -84t93 -38q45 0 76 25t38 61t0 72t-38 61t-76 25q-57 0 -90.5 -38t-34.5 -84z" />
<glyph unicode="&#xb1;" horiz-adv-x="1083" d="M152 698v123h325v328h127v-328h326v-123h-326v-336h-127v336h-325zM164 88v123h758v-123h-758z" />
<glyph unicode="&#xb2;" horiz-adv-x="741" d="M88 860v172q0 208 279 221q172 4 172 127q0 127 -168 127q-164 0 -164 -123h-115q0 62 23.5 107t64.5 69t89 35t104 11t103.5 -11.5t89 -36t65.5 -70t24 -108.5q0 -54 -17.5 -95t-43 -65t-65 -39.5t-74 -22t-78.5 -9.5q-7 -1 -29.5 -3t-30 -3t-26.5 -4.5t-26 -7t-21 -9.5 t-19.5 -14t-13 -19t-10 -26t-2.5 -33v-55h448v-115h-559z" />
<glyph unicode="&#xb3;" horiz-adv-x="741" d="M78 1075h115q7 -114 169 -114q30 0 56.5 4.5t55.5 16t46 37t17 62.5q0 40 -41 75.5t-125 35.5h-115v100h106q66 0 115 25.5t49 81.5q0 41 -42.5 74.5t-121.5 33.5q-39 0 -72.5 -8.5t-62.5 -36.5t-32 -73h-107q0 57 23 100t63 68t87 37t101 12q73 0 135 -21.5t103 -70 t41 -115.5q0 -54 -31 -97.5t-82 -60.5q60 -16 94.5 -62.5t34.5 -97.5q0 -64 -26 -111t-70.5 -71.5t-94 -35.5t-106.5 -11q-55 0 -103 11.5t-89.5 36t-65.5 69.5t-24 106z" />
<glyph unicode="&#xb4;" horiz-adv-x="458" d="M57 1171v9l154 254h164v-4l-193 -259h-125z" />
<glyph unicode="&#xb6;" horiz-adv-x="1632" d="M66 909q2 101 36 193t96.5 166.5t163 119t224.5 44.5h977v-132h-211v-1740h-140v1740h-507v-1740h-144v829q-121 2 -217.5 47.5t-156 120t-90.5 164.5t-31 188z" />
<glyph unicode="&#xb7;" horiz-adv-x="489" d="M145 586q0 46 31 72.5t68.5 26.5t68.5 -26.5t31 -72.5t-31 -72.5t-68.5 -26.5t-68.5 26.5t-31 72.5z" />
<glyph unicode="&#xb8;" horiz-adv-x="606" d="M51 -324l70 66q53 -75 149 -78q44 0 78.5 19t44.5 55q18 61 -37.5 96.5t-150.5 7.5l-23 21l47 182h101l-31 -111q118 4 171.5 -63.5t31.5 -153.5q-19 -77 -83.5 -117t-144.5 -40q-72 2 -132 30.5t-91 85.5z" />
<glyph unicode="&#xb9;" horiz-adv-x="522" d="M74 858v103h139v497l-111 -26v104l226 55v-630h141v-103h-395z" />
<glyph unicode="&#xba;" horiz-adv-x="972" d="M143 1106q0 159 98 249.5t246 90.5t247.5 -91t99.5 -249q0 -159 -100 -252.5t-247 -93.5q-146 0 -245 93.5t-99 252.5zM178 516v119h610v-119h-610zM270 1106q0 -103 61.5 -166t155.5 -63q95 0 157.5 63t62.5 166q0 101 -62.5 164t-157.5 63q-94 0 -155.5 -63t-61.5 -164 z" />
<glyph unicode="&#xbb;" horiz-adv-x="886" d="M104 160l279 450l-279 443v8h148l283 -451l-283 -450h-148zM358 160l279 450l-279 443v8h146l284 -451l-284 -450h-146z" />
<glyph unicode="&#xbc;" horiz-adv-x="1501" d="M100 705v102h129v502l-110 -25v100l225 54v-631h135v-102h-379zM285 -4l768 1446h137l-770 -1446h-135zM827 250l381 485h133v-473h89v-108h-89v-152h-112v152h-393zM961 262h268v340z" />
<glyph unicode="&#xbd;" horiz-adv-x="1611" d="M100 707v102h127v498l-110 -27v104l229 56v-631h133v-102h-379zM283 -4l768 1446h137l-770 -1446h-135zM952 0v172q0 204 279 217q172 4 172 131t-168 127q-164 0 -164 -123h-115q0 62 23.5 107.5t64.5 70.5t89 36.5t104 11.5q55 0 103 -12t90 -37.5t66 -71.5t24 -109 q0 -215 -279 -237q-6 -1 -19 -2q-33 -3 -49 -5.5t-40.5 -10t-36 -18t-20.5 -30t-9 -47.5v-55h444v-115h-559z" />
<glyph unicode="&#xbe;" horiz-adv-x="1579" d="M88 940h117q7 -113 164 -113q29 0 55 5t54 17t44.5 37t16.5 60q0 39 -41.5 74t-124.5 35h-111v98h103q67 0 114 23.5t47 78.5q0 41 -41 74t-120 33q-27 0 -52.5 -5t-51.5 -17t-42 -36.5t-16 -58.5h-105q0 108 79 160.5t190 52.5q112 0 192 -52.5t80 -150.5 q0 -56 -30.5 -97.5t-80.5 -55.5q58 -16 91.5 -62t33.5 -94q0 -62 -25 -108t-67.5 -70.5t-91 -35.5t-104.5 -11q-54 0 -101 11.5t-87.5 36t-64.5 68.5t-24 103zM389 -6l768 1448h133l-770 -1448h-131zM903 248l373 485h141v-473h90v-108h-90v-152h-112v152h-394zM1036 260 h269v340z" />
<glyph unicode="&#xbf;" horiz-adv-x="1191" d="M70 -12q5 95 36 164t77 107t100 65.5t107 48.5t96.5 45.5t70.5 66.5t27 103q0 13 3 53t3 68q25 0 72.5 -1t70.5 -1q0 -142 -27.5 -226t-88 -134t-173.5 -87q-40 -15 -68.5 -28.5t-60.5 -36.5t-52 -49.5t-33 -67t-13 -90.5q0 -75 33.5 -133.5t90.5 -93t126.5 -51.5 t146.5 -17q156 0 262.5 80t110.5 221h139q0 -138 -69.5 -237.5t-183.5 -147t-259 -47.5q-112 0 -209 26.5t-172.5 77.5t-119 134t-43.5 188zM555 932q0 38 21 64t50.5 32t59.5 0t51 -32.5t21 -65.5q0 -38 -21 -64t-51 -32t-59.5 0t-50.5 32.5t-21 65.5z" />
<glyph unicode="&#xc0;" horiz-adv-x="1515" d="M43 0l643 1434h143l644 -1434h-152l-147 332h-832l-147 -332h-152zM399 463h717l-358 815zM500 1841v4h168l151 -254v-8h-129z" />
<glyph unicode="&#xc1;" horiz-adv-x="1515" d="M43 0l643 1434h143l644 -1434h-152l-147 332h-832l-147 -332h-152zM399 463h717l-358 815zM690 1583v8l154 254h164v-4l-193 -258h-125z" />
<glyph unicode="&#xc2;" horiz-adv-x="1515" d="M43 0l643 1434h143l644 -1434h-152l-147 332h-832l-147 -332h-152zM399 463h717l-358 815zM414 1569v14l295 272h96l293 -272v-14h-146l-196 178l-197 -178h-145z" />
<glyph unicode="&#xc3;" horiz-adv-x="1515" d="M43 0l643 1434h143l644 -1434h-152l-147 332h-832l-147 -332h-152zM399 463h717l-358 815zM483 1653q17 79 72.5 117t128.5 24q20 -4 53.5 -19.5t61 -28t57 -18.5t52 9.5t34.5 54.5l92 -37q-16 -86 -72 -121t-124 -20q-21 6 -57 23.5t-63 28t-57 15.5t-52 -11t-34 -54z " />
<glyph unicode="&#xc4;" horiz-adv-x="1515" d="M43 0l643 1434h143l644 -1434h-152l-147 332h-832l-147 -332h-152zM399 463h717l-358 815zM442 1673q0 56 45 79t90.5 0t45.5 -79q0 -43 -28.5 -67.5t-62 -24.5t-62 24.5t-28.5 67.5zM899 1673q0 56 45 79t90 0t45 -79q0 -43 -28 -67.5t-62 -24.5t-62 24.5t-28 67.5z" />
<glyph unicode="&#xc5;" horiz-adv-x="1536" d="M53 0l643 1434h144l643 -1434h-152l-147 332h-832l-147 -332h-152zM410 463h716l-358 815zM541 1581q0 99 67.5 155t161.5 56t164 -56.5t70 -154.5q0 -77 -41 -127.5t-117 -71.5l-154 2q-151 41 -151 197zM647 1580q0 -44 32 -81t89 -37q48 0 80.5 24.5t39.5 59t-1 69 t-40 59t-79 24.5q-57 0 -89 -37t-32 -81z" />
<glyph unicode="&#xc6;" horiz-adv-x="1871" d="M-29 0l881 1434h887v-134h-688v-512h655v-133h-655v-518h710v-137h-850v453h-497l-271 -453h-172zM498 588h413v342l4 356h-6z" />
<glyph unicode="&#xc7;" horiz-adv-x="1454" d="M109 709q0 119 29 228t89.5 203.5t147.5 164t210 109.5t269 40q149 0 283 -54.5t225 -160.5l-88 -88q-175 172 -420 172q-145 0 -261.5 -50.5t-189.5 -136.5t-112 -195t-39 -230q0 -127 38.5 -235.5t112 -190t189.5 -128t262 -46.5q119 0 232 45.5t198 130.5l92 -92 q-218 -218 -522 -218q-181 0 -325 58t-234.5 159t-138 232t-47.5 283zM551 -379l72 66q53 -75 155 -78q46 0 81.5 19t45.5 55q18 62 -39 97t-155 7l-25 20l47 181h105l-29 -109q123 4 177 -63.5t32 -153.5q-19 -77 -85.5 -117.5t-150.5 -40.5q-164 3 -231 117z" />
<glyph unicode="&#xc8;" horiz-adv-x="1341" d="M199 0v1434h1009v-136h-866v-514h827v-133h-827v-516h885v-135h-1028zM524 1847v4h168l152 -254v-8h-129z" />
<glyph unicode="&#xc9;" horiz-adv-x="1341" d="M199 0v1434h1009v-136h-866v-514h827v-133h-827v-516h885v-135h-1028zM639 1583v8l154 254h163v-4l-192 -258h-125z" />
<glyph unicode="&#xca;" horiz-adv-x="1341" d="M199 0v1434h1009v-136h-866v-514h827v-133h-827v-516h885v-135h-1028zM381 1591v15l289 268h96l289 -268v-15h-144l-194 176l-195 -176h-141z" />
<glyph unicode="&#xcb;" horiz-adv-x="1341" d="M199 0v1434h1009v-136h-866v-514h827v-133h-827v-516h885v-135h-1028zM426 1688q0 56 45 79t90 0t45 -79q0 -43 -28 -67.5t-62 -24.5t-62 24.5t-28 67.5zM883 1688q0 56 45 79t90 0t45 -79q0 -43 -28 -67.5t-62 -24.5t-62 24.5t-28 67.5z" />
<glyph unicode="&#xcc;" horiz-adv-x="540" d="M57 1839v4h152l137 -254v-6h-117zM199 0v1434h143v-1434h-143z" />
<glyph unicode="&#xcd;" horiz-adv-x="540" d="M195 1581v8l137 254h147v-4l-172 -258h-112zM199 0v1434h143v-1434h-143z" />
<glyph unicode="&#xce;" horiz-adv-x="540" d="M-51 1561v14l264 270h86l264 -270v-14h-131l-176 176l-176 -176h-131zM199 0v1434h143v-1434h-143z" />
<glyph unicode="&#xcf;" horiz-adv-x="540" d="M27 1665q0 53 42.5 75t85 0t42.5 -75t-42.5 -75t-85 0t-42.5 75zM199 0v1434h143v-1434h-143zM338 1665q0 53 42.5 75t85 0t42.5 -75t-42.5 -75t-85 0t-42.5 75z" />
<glyph unicode="&#xd0;" horiz-adv-x="1544" d="M45 651v113h662v-113h-662zM209 0v1434h506q141 0 260.5 -39.5t202.5 -106.5t142 -157.5t86.5 -191.5t27.5 -208q0 -111 -26 -215t-83 -198.5t-139.5 -164.5t-203.5 -111.5t-267 -41.5h-506zM352 133h363q116 0 213.5 34.5t163.5 93t112 136.5t66 162.5t18 173.5 q-2 108 -38.5 206.5t-105 180t-179.5 130t-250 48.5h-363v-1165z" />
<glyph unicode="&#xd1;" horiz-adv-x="1550" d="M199 0v1434h90l928 -1164l-9 475v689h144v-1434h-86l-928 1153l4 -424v-729h-143zM502 1632q17 79 72 117.5t128 24.5q20 -4 53.5 -19.5t61.5 -28t57.5 -18.5t52 9.5t34.5 54.5l92 -37q-16 -86 -72.5 -121.5t-124.5 -20.5q-21 6 -57 23.5t-62.5 28t-56.5 15.5t-52 -11 t-34 -54z" />
<glyph unicode="&#xd2;" d="M106 715q0 151 49 286t139.5 237t230.5 161t309 57q141 2 261 -38.5t204.5 -111.5t143.5 -166t87.5 -203.5t28.5 -223.5q0 -114 -28.5 -221.5t-88 -202t-144 -165t-204 -111t-260.5 -38.5q-142 -2 -262.5 38.5t-205 111.5t-144 166t-88 202.5t-28.5 221.5zM250 713 q2 -120 39 -227t107 -192.5t183 -135t255 -47.5q141 -2 254 48t183 136t107 193t37 225q0 96 -22.5 185.5t-70 167.5t-115 135t-163.5 89.5t-210 30.5q-140 2 -253.5 -45.5t-185.5 -131t-109.5 -194.5t-35.5 -237zM608 1851v4h168l152 -253v-9h-129z" />
<glyph unicode="&#xd3;" d="M106 715q0 151 49 286t139.5 237t230.5 161t309 57q141 2 261 -38.5t204.5 -111.5t143.5 -166t87.5 -203.5t28.5 -223.5q0 -114 -28.5 -221.5t-88 -202t-144 -165t-204 -111t-260.5 -38.5q-142 -2 -262.5 38.5t-205 111.5t-144 166t-88 202.5t-28.5 221.5zM250 713 q2 -120 39 -227t107 -192.5t183 -135t255 -47.5q141 -2 254 48t183 136t107 193t37 225q0 96 -22.5 185.5t-70 167.5t-115 135t-163.5 89.5t-210 30.5q-140 2 -253.5 -45.5t-185.5 -131t-109.5 -194.5t-35.5 -237zM758 1593v9l153 253h164v-4l-192 -258h-125z" />
<glyph unicode="&#xd4;" d="M106 715q0 151 49 286t139.5 237t230.5 161t309 57q141 2 261 -38.5t204.5 -111.5t143.5 -166t87.5 -203.5t28.5 -223.5q0 -114 -28.5 -221.5t-88 -202t-144 -165t-204 -111t-260.5 -38.5q-142 -2 -262.5 38.5t-205 111.5t-144 166t-88 202.5t-28.5 221.5zM250 713 q2 -120 39 -227t107 -192.5t183 -135t255 -47.5q141 -2 254 48t183 136t107 193t37 225q0 96 -22.5 185.5t-70 167.5t-115 135t-163.5 89.5t-210 30.5q-140 2 -253.5 -45.5t-185.5 -131t-109.5 -194.5t-35.5 -237zM512 1599v15l295 272h96l293 -272v-15h-145l-197 179 l-197 -179h-145z" />
<glyph unicode="&#xd5;" d="M106 715q0 151 49 286t139.5 237t230.5 161t309 57q141 2 261 -38.5t204.5 -111.5t143.5 -166t87.5 -203.5t28.5 -223.5q0 -114 -28.5 -221.5t-88 -202t-144 -165t-204 -111t-260.5 -38.5q-142 -2 -262.5 38.5t-205 111.5t-144 166t-88 202.5t-28.5 221.5zM250 713 q2 -120 39 -227t107 -192.5t183 -135t255 -47.5q141 -2 254 48t183 136t107 193t37 225q0 96 -22.5 185.5t-70 167.5t-115 135t-163.5 89.5t-210 30.5q-140 2 -253.5 -45.5t-185.5 -131t-109.5 -194.5t-35.5 -237zM582 1679q17 79 72 117.5t128 24.5q20 -4 53.5 -19.5 t61 -28t57 -18.5t52 9.5t34.5 54.5l93 -37q-16 -86 -72.5 -121.5t-124.5 -20.5q-21 6 -57 23.5t-62.5 28t-56.5 15.5t-52 -11t-34 -54z" />
<glyph unicode="&#xd6;" d="M106 715q0 151 49 286t139.5 237t230.5 161t309 57q141 2 261 -38.5t204.5 -111.5t143.5 -166t87.5 -203.5t28.5 -223.5q0 -114 -28.5 -221.5t-88 -202t-144 -165t-204 -111t-260.5 -38.5q-142 -2 -262.5 38.5t-205 111.5t-144 166t-88 202.5t-28.5 221.5zM250 713 q2 -120 39 -227t107 -192.5t183 -135t255 -47.5q141 -2 254 48t183 136t107 193t37 225q0 96 -22.5 185.5t-70 167.5t-115 135t-163.5 89.5t-210 30.5q-140 2 -253.5 -45.5t-185.5 -131t-109.5 -194.5t-35.5 -237zM524 1671q0 56 45 79t90.5 0t45.5 -79q0 -43 -28.5 -67.5 t-62 -24.5t-62 24.5t-28.5 67.5zM981 1671q0 56 45 79t90 0t45 -79q0 -43 -28 -67.5t-62 -24.5t-62 24.5t-28 67.5z" />
<glyph unicode="&#xd7;" horiz-adv-x="935" d="M137 416l246 246l-242 235l88 88l238 -240l240 242l81 -86l-241 -242l252 -247l-86 -84l-252 247l-244 -245z" />
<glyph unicode="&#xd8;" d="M106 715q0 151 49 286t139.5 237t230.5 161t309 57q141 2 261 -38.5t204.5 -111.5t143.5 -166t87.5 -203.5t28.5 -223.5q0 -114 -28.5 -221.5t-88 -202t-144 -165t-204 -111t-260.5 -38.5q-142 -2 -262.5 38.5t-205 111.5t-144 166t-88 202.5t-28.5 221.5zM250 713 q2 -120 39 -227t107 -192.5t183 -135t255 -47.5q141 -2 254 48t183 136t107 193t37 225q0 96 -22.5 185.5t-70 167.5t-115 135t-163.5 89.5t-210 30.5q-140 2 -253.5 -45.5t-185.5 -131t-109.5 -194.5t-35.5 -237zM272 -158l992 1719h147l-991 -1719h-148z" />
<glyph unicode="&#xd9;" horiz-adv-x="1503" d="M182 553v881h144v-881q0 -200 121.5 -320t308.5 -120q83 0 157.5 27t134.5 79.5t95 138.5t35 195v881h143v-881q0 -141 -44.5 -252t-122.5 -180t-179 -105t-219 -36q-119 0 -221.5 36t-182 105t-125 180t-45.5 252zM532 1837v4h168l152 -254v-8h-129z" />
<glyph unicode="&#xda;" horiz-adv-x="1503" d="M182 553v881h144v-881q0 -200 121.5 -320t308.5 -120q83 0 157.5 27t134.5 79.5t95 138.5t35 195v881h143v-881q0 -141 -44.5 -252t-122.5 -180t-179 -105t-219 -36q-119 0 -221.5 36t-182 105t-125 180t-45.5 252zM655 1577v8l154 254h164v-4l-193 -258h-125z" />
<glyph unicode="&#xdb;" horiz-adv-x="1503" d="M182 553v881h144v-881q0 -200 121.5 -320t308.5 -120q83 0 157.5 27t134.5 79.5t95 138.5t35 195v881h143v-881q0 -141 -44.5 -252t-122.5 -180t-179 -105t-219 -36q-119 0 -221.5 36t-182 105t-125 180t-45.5 252zM414 1581v14l295 273h96l293 -273v-14h-146l-196 178 l-197 -178h-145z" />
<glyph unicode="&#xdc;" horiz-adv-x="1503" d="M182 553v881h144v-881q0 -200 121.5 -320t308.5 -120q83 0 157.5 27t134.5 79.5t95 138.5t35 195v881h143v-881q0 -141 -44.5 -252t-122.5 -180t-179 -105t-219 -36q-119 0 -221.5 36t-182 105t-125 180t-45.5 252zM438 1665q0 56 45 79t90 0t45 -79q0 -43 -28 -67.5 t-62 -24.5t-62 24.5t-28 67.5zM895 1665q0 56 45 79t90 0t45 -79q0 -43 -28 -67.5t-62 -24.5t-62 24.5t-28 67.5z" />
<glyph unicode="&#xdd;" horiz-adv-x="1357" d="M55 1430v4h166l457 -717l463 717h168v-4l-559 -852v-578h-144v578zM563 1581v8l154 254h164v-4l-193 -258h-125z" />
<glyph unicode="&#xde;" horiz-adv-x="1396" d="M199 0v1434h145v-248h496q93 0 172.5 -26.5t135.5 -71.5t95.5 -105.5t58 -128.5t18.5 -140t-18.5 -140t-58 -128.5t-95.5 -105.5t-135.5 -71.5t-172.5 -26.5h-494v-242h-147zM346 377h494q106 0 184 50t113 124.5t35 161.5t-35 161.5t-113 124.5t-184 50h-494v-672z" />
<glyph unicode="&#xdf;" horiz-adv-x="1239" d="M160 0v1067q0 84 25 150.5t67 110.5t100 73.5t122 42t136 12.5q92 0 170 -22.5t139 -66.5t95.5 -118t34.5 -170q0 -106 -59 -184t-163 -102q163 -35 240.5 -142.5t77.5 -259.5q0 -117 -43 -204t-114 -135t-162.5 -68t-190.5 -10.5t-195 44.5v129q109 -46 213 -51.5 t182 26t125.5 100.5t47.5 165q0 76 -23.5 135t-62.5 96t-93.5 60.5t-111 33t-121.5 9.5h-154v123h146q43 0 84 6t85.5 22.5t77.5 41.5t54.5 67.5t21.5 97.5q0 73 -27 125t-73 78.5t-95 37.5t-106 11q-309 0 -309 -264v-471v-596h-141z" />
<glyph unicode="&#xe0;" horiz-adv-x="1298" d="M94 506q0 155 70 274.5t187 182.5t261 63q123 0 234.5 -56t167.5 -159v201h129v-1012h-127v201q-63 -108 -174 -164.5t-232 -56.5q-220 0 -368 145t-148 381zM231 506q0 -176 110.5 -286.5t274.5 -110.5q94 0 170.5 34t123.5 89.5t72.5 127t25.5 145.5t-25.5 145.5 t-72.5 127t-123.5 89.5t-170.5 34q-164 0 -274.5 -110t-110.5 -285zM422 1444v4h168l151 -254v-8h-129z" />
<glyph unicode="&#xe1;" horiz-adv-x="1298" d="M94 506q0 155 70 274.5t187 182.5t261 63q123 0 234.5 -56t167.5 -159v201h129v-1012h-127v201q-63 -108 -174 -164.5t-232 -56.5q-220 0 -368 145t-148 381zM231 506q0 -176 110.5 -286.5t274.5 -110.5q94 0 170.5 34t123.5 89.5t72.5 127t25.5 145.5t-25.5 145.5 t-72.5 127t-123.5 89.5t-170.5 34q-164 0 -274.5 -110t-110.5 -285zM553 1182v8l154 254h163v-4l-192 -258h-125z" />
<glyph unicode="&#xe2;" horiz-adv-x="1298" d="M94 506q0 155 70 274.5t187 182.5t261 63q123 0 234.5 -56t167.5 -159v201h129v-1012h-127v201q-63 -108 -174 -164.5t-232 -56.5q-220 0 -368 145t-148 381zM231 506q0 -176 110.5 -286.5t274.5 -110.5q94 0 170.5 34t123.5 89.5t72.5 127t25.5 145.5t-25.5 145.5 t-72.5 127t-123.5 89.5t-170.5 34q-164 0 -274.5 -110t-110.5 -285zM346 1165v15l289 266h94l287 -266v-15h-142l-192 174l-193 -174h-143z" />
<glyph unicode="&#xe3;" horiz-adv-x="1298" d="M94 506q0 155 70 274.5t187 182.5t261 63q123 0 234.5 -56t167.5 -159v201h129v-1012h-127v201q-63 -108 -174 -164.5t-232 -56.5q-220 0 -368 145t-148 381zM231 506q0 -176 110.5 -286.5t274.5 -110.5q94 0 170.5 34t123.5 89.5t72.5 127t25.5 145.5t-25.5 145.5 t-72.5 127t-123.5 89.5t-170.5 34q-164 0 -274.5 -110t-110.5 -285zM383 1282q17 79 72.5 117t128.5 24q20 -4 53.5 -19.5t61 -28t57 -18.5t52 9.5t34.5 54.5l92 -37q-16 -86 -72.5 -121t-124.5 -20q-21 6 -57 23.5t-62.5 28t-56.5 15.5t-52 -11t-34 -54z" />
<glyph unicode="&#xe4;" horiz-adv-x="1298" d="M94 506q0 155 70 274.5t187 182.5t261 63q123 0 234.5 -56t167.5 -159v201h129v-1012h-127v201q-63 -108 -174 -164.5t-232 -56.5q-220 0 -368 145t-148 381zM231 506q0 -176 110.5 -286.5t274.5 -110.5q94 0 170.5 34t123.5 89.5t72.5 127t25.5 145.5t-25.5 145.5 t-72.5 127t-123.5 89.5t-170.5 34q-164 0 -274.5 -110t-110.5 -285zM354 1339q0 56 45 79t90.5 0t45.5 -79q0 -43 -28.5 -67.5t-62 -24.5t-62 24.5t-28.5 67.5zM811 1339q0 56 45 79t90 0t45 -79q0 -43 -28 -67.5t-62 -24.5t-62 24.5t-28 67.5z" />
<glyph unicode="&#xe5;" horiz-adv-x="1298" d="M94 506q0 155 70 274.5t187 182.5t261 63q123 0 234.5 -56t167.5 -159v201h129v-1012h-127v201q-63 -108 -174 -164.5t-232 -56.5q-220 0 -368 145t-148 381zM231 506q0 -176 110.5 -286.5t274.5 -110.5q94 0 170.5 34t123.5 89.5t72.5 127t25.5 145.5t-25.5 145.5 t-72.5 127t-123.5 89.5t-170.5 34q-164 0 -274.5 -110t-110.5 -285zM428 1343q0 85 65 135t154 50q91 0 156 -49.5t65 -135.5q0 -91 -62.5 -140.5t-160.5 -49.5q-95 0 -156 50t-61 140zM529 1342.5q0 -38.5 31 -70t85 -31.5q58 0 90.5 31.5t32 70t-33 70t-89.5 31.5 q-55 0 -85.5 -31.5t-30.5 -70z" />
<glyph unicode="&#xe6;" horiz-adv-x="2093" d="M94 506q0 155 69.5 274.5t186.5 182.5t260 63q124 0 231 -55t165 -160l2 201h110v-193q65 103 167 157t228 54q109 0 204.5 -37t167.5 -107t106 -183t16 -254h-883q12 -155 122 -245.5t265 -90.5q96 0 193 37t147 102l95 -82q-72 -90 -191 -139t-246 -49 q-130 0 -232.5 53t-162.5 151l-2 -186h-108v199q-63 -108 -170 -163.5t-226 -55.5q-144 0 -260 63.5t-185 184.5t-69 278zM231 506q0 -177 110 -286t275 -109q95 0 172 34t124.5 89.5t73 126t25.5 144.5t-25.5 144.5t-73 126t-124.5 89.5t-172 34q-165 0 -275 -109 t-110 -284zM1124 565h756q-4 163 -105 252.5t-268 89.5q-148 0 -255.5 -91.5t-127.5 -250.5z" />
<glyph unicode="&#xe7;" horiz-adv-x="1062" d="M94 504q0 162 70.5 282t188 180t265.5 60q210 0 359 -149l-90 -89q-112 109 -266 109q-167 0 -278.5 -105.5t-111.5 -287.5q0 -185 110.5 -289t276.5 -104q167 0 281 114l94 -92q-156 -153 -375 -153q-108 0 -203 35.5t-166.5 101.5t-113 166t-41.5 221zM346 -360l70 63 q54 -71 137 -74q48 -5 87 13t50 57q18 61 -37.5 97.5t-150.5 8.5l-25 19l45 178h107l-27 -111q49 2 88 -10.5t61.5 -34t37 -49.5t15 -58.5t-4.5 -60.5q-19 -77 -84.5 -116t-147.5 -37q-68 0 -127.5 30t-93.5 85z" />
<glyph unicode="&#xe8;" horiz-adv-x="1200" d="M94 506q0 227 146.5 375.5t371.5 144.5q115 2 211.5 -33t167.5 -105t105 -184t20 -258h-880q12 -156 119.5 -245.5t262.5 -89.5q96 0 194.5 37t148.5 102l92 -82q-72 -91 -190 -139.5t-245 -48.5q-229 0 -376.5 144t-147.5 382zM236 563h751q-4 161 -109 251.5t-264 90.5 q-156 0 -257 -89t-121 -253zM410 1430v4h168l151 -254v-9h-129z" />
<glyph unicode="&#xe9;" horiz-adv-x="1200" d="M94 506q0 227 146.5 375.5t371.5 144.5q115 2 211.5 -33t167.5 -105t105 -184t20 -258h-880q12 -156 119.5 -245.5t262.5 -89.5q96 0 194.5 37t148.5 102l92 -82q-72 -91 -190 -139.5t-245 -48.5q-229 0 -376.5 144t-147.5 382zM236 563h751q-4 161 -109 251.5t-264 90.5 q-156 0 -257 -89t-121 -253zM543 1171v9l153 254h164v-4l-192 -259h-125z" />
<glyph unicode="&#xea;" horiz-adv-x="1200" d="M94 506q0 227 146.5 375.5t371.5 144.5q115 2 211.5 -33t167.5 -105t105 -184t20 -258h-880q12 -156 119.5 -245.5t262.5 -89.5q96 0 194.5 37t148.5 102l92 -82q-72 -91 -190 -139.5t-245 -48.5q-229 0 -376.5 144t-147.5 382zM236 563h751q-4 161 -109 251.5t-264 90.5 q-156 0 -257 -89t-121 -253zM301 1155v14l295 273h96l293 -273v-14h-145l-197 178l-197 -178h-145z" />
<glyph unicode="&#xeb;" horiz-adv-x="1200" d="M94 506q0 227 146.5 375.5t371.5 144.5q115 2 211.5 -33t167.5 -105t105 -184t20 -258h-880q12 -156 119.5 -245.5t262.5 -89.5q96 0 194.5 37t148.5 102l92 -82q-72 -91 -190 -139.5t-245 -48.5q-229 0 -376.5 144t-147.5 382zM236 563h751q-4 161 -109 251.5t-264 90.5 q-156 0 -257 -89t-121 -253zM326 1341q0 56 45 79t90 0t45 -79q0 -43 -28 -67.5t-62 -24.5t-62 24.5t-28 67.5zM782 1341q0 56 45 79t90.5 0t45.5 -79q0 -43 -28.5 -67.5t-62 -24.5t-62 24.5t-28.5 67.5z" />
<glyph unicode="&#xec;" horiz-adv-x="460" d="M33 1434v2h157l115 -240v-8h-135zM160 0v1006h141v-1006h-141z" />
<glyph unicode="&#xed;" horiz-adv-x="460" d="M150 1188v8l114 240h158v-2l-137 -246h-135zM160 0v1006h141v-1006h-141z" />
<glyph unicode="&#xee;" horiz-adv-x="460" d="M-16 1174v12l211 252h63l209 -250v-14h-127l-117 141l-119 -141h-120zM160 0v1006h141v-1006h-141z" />
<glyph unicode="&#xef;" horiz-adv-x="460" d="M-6 1348q0 41 28 65t62 24t62 -24t28 -65t-28 -65t-62 -24t-62 24t-28 65zM160 0v1006h141v-1006h-141zM299 1348q0 41 28 65t62 24t62 -24t28 -65t-28 -65t-62 -24t-62 24t-28 65z" />
<glyph unicode="&#xf0;" horiz-adv-x="1239" d="M96 487q0 94 31.5 181.5t91 159.5t155 116.5t214.5 48.5q213 4 362 -135q-26 91 -103 178.5t-173 151.5l-80 -111l-80 53l76 107q-87 54 -201 78l33 117q135 -38 246 -95l94 129l80 -55l-90 -123q385 -272 385 -772q5 -239 -137.5 -389t-383.5 -150q-101 0 -187 28.5 t-146.5 77.5t-103 114.5t-63 139t-20.5 150.5zM238 489q0 -74 24 -142t70 -122.5t119.5 -87.5t164.5 -33q92 0 166 33t120 87.5t70.5 122.5t24.5 142q0 73 -24.5 140.5t-70.5 122t-120 87.5t-166 33q-91 0 -165 -33t-119.5 -87.5t-69.5 -122t-24 -140.5z" />
<glyph unicode="&#xf1;" horiz-adv-x="1245" d="M160 0v1012h131l4 -170q43 72 110.5 117t141 58.5t145 8.5t135.5 -27q126 -42 198.5 -154t72.5 -276v-569h-140v567q0 162 -86.5 247t-242.5 85q-146 0 -239 -100.5t-93 -247.5v-551h-137zM354 1321q17 73 73 109t126 22q19 -4 52.5 -18.5t61 -25.5t57 -16.5t52.5 8.5 t35 50l92 -35q-16 -78 -72 -111t-124 -20q-21 6 -57.5 22.5t-63 26.5t-56 14.5t-51 -10.5t-33.5 -51z" />
<glyph unicode="&#xf2;" horiz-adv-x="1228" d="M94 500q0 234 146 380t374 146q224 0 372.5 -147t148.5 -379q0 -233 -146.5 -376.5t-374.5 -143.5q-224 0 -372 144t-148 376zM231 500q0 -177 107 -284t276 -107q171 0 277 107t106 284t-107.5 289t-275.5 112q-169 0 -276 -112t-107 -289zM406 1430v4h167l152 -246v-6 h-129z" />
<glyph unicode="&#xf3;" horiz-adv-x="1228" d="M94 500q0 234 146 380t374 146q224 0 372.5 -147t148.5 -379q0 -233 -146.5 -376.5t-374.5 -143.5q-224 0 -372 144t-148 376zM231 500q0 -177 107 -284t276 -107q171 0 277 107t106 284t-107.5 289t-275.5 112q-169 0 -276 -112t-107 -289zM532 1190v8l148 238h158v-4 l-185 -242h-121z" />
<glyph unicode="&#xf4;" horiz-adv-x="1228" d="M94 500q0 234 146 380t374 146q224 0 372.5 -147t148.5 -379q0 -233 -146.5 -376.5t-374.5 -143.5q-224 0 -372 144t-148 376zM231 500q0 -177 107 -284t276 -107q171 0 277 107t106 284t-107.5 289t-275.5 112q-169 0 -276 -112t-107 -289zM287 1163v15l295 272h96 l293 -272v-15h-146l-196 178l-197 -178h-145z" />
<glyph unicode="&#xf5;" horiz-adv-x="1228" d="M94 500q0 234 146 380t374 146q224 0 372.5 -147t148.5 -379q0 -233 -146.5 -376.5t-374.5 -143.5q-224 0 -372 144t-148 376zM231 500q0 -177 107 -284t276 -107q171 0 277 107t106 284t-107.5 289t-275.5 112q-169 0 -276 -112t-107 -289zM348 1315q17 77 72.5 113 t130.5 24q20 -4 53.5 -19.5t61 -27.5t57 -18t52 9t34.5 54l92 -37q-16 -82 -72 -116t-124 -19q-22 5 -57.5 20.5t-63 26.5t-57.5 16.5t-52.5 -9.5t-34.5 -52z" />
<glyph unicode="&#xf6;" horiz-adv-x="1228" d="M94 500q0 234 146 380t374 146q224 0 372.5 -147t148.5 -379q0 -233 -146.5 -376.5t-374.5 -143.5q-224 0 -372 144t-148 376zM231 500q0 -177 107 -284t276 -107q171 0 277 107t106 284t-107.5 289t-275.5 112q-169 0 -276 -112t-107 -289zM307 1343q0 56 45 79t90 0 t45 -79q0 -43 -28 -67.5t-62 -24.5t-62 24.5t-28 67.5zM764 1343q0 56 45 79t90 0t45 -79q0 -43 -28 -67.5t-62 -24.5t-62 24.5t-28 67.5z" />
<glyph unicode="&#xf7;" horiz-adv-x="1144" d="M154 614v125h837v-125h-837zM479 344q0 46 30 72t66.5 26t66.5 -26t30 -72q0 -45 -30 -70.5t-66.5 -25.5t-66.5 25.5t-30 70.5zM479 1004q0 44 30 69.5t66.5 25.5t66.5 -25.5t30 -69.5q0 -45 -30 -70.5t-66.5 -25.5t-66.5 25.5t-30 70.5z" />
<glyph unicode="&#xf8;" horiz-adv-x="1222" d="M92 500q0 234 146 380t374 146q224 0 372.5 -147t148.5 -379q0 -233 -146.5 -376.5t-374.5 -143.5q-224 0 -372 144t-148 376zM180 -117l729 1227h138l-732 -1227h-135zM229 500q0 -177 107 -284t276 -107q171 0 277 107t106 284t-107.5 289t-275.5 112q-169 0 -276 -112 t-107 -289z" />
<glyph unicode="&#xf9;" horiz-adv-x="1241" d="M158 442v570h137v-568q0 -160 82.5 -245t236.5 -84q145 0 238.5 99t93.5 247v551h135v-1012h-127l-4 170q-61 -95 -154 -141.5t-204 -48.5q-198 0 -316 124.5t-118 337.5zM408 1430v4h167l152 -254v-9h-129z" />
<glyph unicode="&#xfa;" horiz-adv-x="1241" d="M158 442v570h137v-568q0 -160 82.5 -245t236.5 -84q145 0 238.5 99t93.5 247v551h135v-1012h-127l-4 170q-61 -95 -154 -141.5t-204 -48.5q-198 0 -316 124.5t-118 337.5zM524 1171v9l154 254h164v-4l-193 -259h-125z" />
<glyph unicode="&#xfb;" horiz-adv-x="1241" d="M158 442v570h137v-568q0 -160 82.5 -245t236.5 -84q145 0 238.5 99t93.5 247v551h135v-1012h-127l-4 170q-61 -95 -154 -141.5t-204 -48.5q-198 0 -316 124.5t-118 337.5zM299 1165v13l285 264h92l285 -264v-13h-142l-190 172l-189 -172h-141z" />
<glyph unicode="&#xfc;" horiz-adv-x="1241" d="M158 442v570h137v-568q0 -160 82.5 -245t236.5 -84q145 0 238.5 99t93.5 247v551h135v-1012h-127l-4 170q-61 -95 -154 -141.5t-204 -48.5q-198 0 -316 124.5t-118 337.5zM315 1341q0 56 45.5 79t90.5 0t45 -79q0 -43 -28.5 -67.5t-62 -24.5t-62 24.5t-28.5 67.5z M772 1341q0 56 45 79t90 0t45 -79q0 -43 -28 -67.5t-62 -24.5t-62 24.5t-28 67.5z" />
<glyph unicode="&#xfd;" horiz-adv-x="1114" d="M72 1012h153l215 -559l113 -291l115 291l235 559h152l-641 -1495h-150l213 495zM473 1188v6l145 240h156v-2l-182 -244h-119z" />
<glyph unicode="&#xfe;" horiz-adv-x="1302" d="M160 -422v1854h133l2 -635q60 107 170.5 169t243.5 62q218 -8 357.5 -145t139.5 -377q0 -167 -69.5 -288t-184 -179.5t-260.5 -58.5q-123 0 -229.5 58t-167.5 171v-631h-135zM307 504q0 -167 109.5 -279t269.5 -112q166 0 273.5 102t107.5 291q0 185 -107.5 287 t-273.5 102q-164 0 -271.5 -111.5t-107.5 -279.5z" />
<glyph unicode="&#xff;" horiz-adv-x="1114" d="M72 1012h153l215 -559l113 -291l115 291l235 559h152l-641 -1495h-150l213 495zM264 1356q0 53 43 75t86 0t43 -75q0 -41 -27 -64t-59 -23t-59 23t-27 64zM698 1356q0 53 43 75t86 0t43 -75q0 -41 -27 -64t-59 -23t-59 23t-27 64z" />
<glyph unicode="&#x152;" horiz-adv-x="1990" d="M109 721q0 158 46 290.5t134 230.5t227.5 153t317.5 55q90 0 167 -18v2h859v-129h-730v-514h689v-132h-689v-528l752 2v-133h-885q-88 -16 -163 -16q-177 0 -317 57t-228 158t-134 233.5t-46 288.5zM252 717q0 -149 48 -266t132 -190.5t194.5 -111.5t239.5 -38 q69 3 131 18v1180q-70 20 -163 20q-283 0 -432.5 -166.5t-149.5 -445.5z" />
<glyph unicode="&#x153;" horiz-adv-x="2066" d="M94 504q0 232 147 379t369 147q153 0 268.5 -73.5t172.5 -208.5q55 128 170 205t264 77q114 0 208.5 -35.5t164.5 -104.5t103 -182.5t19 -258.5q-426 0 -868 -3q17 -156 120.5 -244.5t258.5 -88.5q95 0 189.5 37t144.5 102l94 -82q-73 -91 -188.5 -139.5t-241.5 -48.5 q-153 0 -269.5 73.5t-172.5 202.5q-60 -134 -171.5 -204t-265.5 -70q-224 0 -370 144t-146 376zM231 504q0 -175 106.5 -282t272.5 -107t272.5 107t106.5 282q0 174 -108.5 286.5t-270.5 112.5q-165 0 -272 -112.5t-107 -286.5zM1112 565h741q-4 164 -101 253t-265 89 q-147 0 -251 -91t-124 -251z" />
<glyph unicode="&#x178;" horiz-adv-x="1357" d="M55 1430v4h166l457 -717l463 717h168v-4l-559 -852v-578h-144v578zM379 1655q0 53 43 75t86 0t43 -75q0 -41 -27 -64t-59 -23t-59 23t-27 64zM813 1655q0 53 43 75t86 0t43 -75q0 -41 -27 -64t-59 -23t-59 23t-27 64z" />
<glyph unicode="&#x2c6;" horiz-adv-x="862" d="M66 1155v14l294 273h97l293 -273v-14h-146l-196 178l-197 -178h-145z" />
<glyph unicode="&#x2dc;" horiz-adv-x="688" d="M61 1331q17 79 72.5 117.5t128.5 24.5q20 -4 53.5 -20t61 -28t57 -18.5t52 9t34.5 54.5l92 -36q-16 -86 -72 -121.5t-124 -20.5q-21 6 -57 23.5t-62.5 28t-56.5 15.5t-52 -11t-34 -54z" />
<glyph unicode="&#x2000;" horiz-adv-x="943" />
<glyph unicode="&#x2001;" horiz-adv-x="1886" />
<glyph unicode="&#x2002;" horiz-adv-x="943" />
<glyph unicode="&#x2003;" horiz-adv-x="1886" />
<glyph unicode="&#x2004;" horiz-adv-x="628" />
<glyph unicode="&#x2005;" horiz-adv-x="471" />
<glyph unicode="&#x2006;" horiz-adv-x="314" />
<glyph unicode="&#x2007;" horiz-adv-x="314" />
<glyph unicode="&#x2008;" horiz-adv-x="235" />
<glyph unicode="&#x2009;" horiz-adv-x="377" />
<glyph unicode="&#x200a;" horiz-adv-x="104" />
<glyph unicode="&#x2010;" horiz-adv-x="1017" d="M145 528v125h727v-125h-727z" />
<glyph unicode="&#x2011;" horiz-adv-x="1017" d="M145 528v125h727v-125h-727z" />
<glyph unicode="&#x2012;" horiz-adv-x="1017" d="M145 528v125h727v-125h-727z" />
<glyph unicode="&#x2013;" horiz-adv-x="1220" d="M147 524v125h926v-125h-926z" />
<glyph unicode="&#x2014;" horiz-adv-x="1435" d="M147 522v125h1141v-125h-1141z" />
<glyph unicode="&#x2018;" horiz-adv-x="456" d="M113 1069l129 367h116l-92 -367h-153z" />
<glyph unicode="&#x2019;" horiz-adv-x="454" d="M123 1061l94 375h152l-129 -375h-117z" />
<glyph unicode="&#x201a;" horiz-adv-x="487" d="M84 -227l94 374h152l-129 -374h-117z" />
<glyph unicode="&#x201c;" horiz-adv-x="745" d="M115 1057l133 373h117l-97 -373h-153zM395 1057l133 373h117l-98 -373h-152z" />
<glyph unicode="&#x201d;" horiz-adv-x="729" d="M119 1073l94 363h152l-129 -363h-117zM399 1073l95 363h151l-129 -363h-117z" />
<glyph unicode="&#x201e;" horiz-adv-x="751" d="M84 -227l94 374h135l-116 -374h-113zM358 -227l95 374h141l-127 -374h-109z" />
<glyph unicode="&#x2022;" horiz-adv-x="798" d="M184 578q0 96 61.5 154.5t155.5 58.5t153.5 -58t59.5 -155q0 -95 -59.5 -153t-153.5 -58t-155.5 58t-61.5 153z" />
<glyph unicode="&#x2026;" horiz-adv-x="1234" d="M139 78q0 46 30.5 72t67 26t67 -26t30.5 -72t-30.5 -72t-67 -26t-67 26t-30.5 72zM522 78q0 46 30.5 72t67 26t67 -26t30.5 -72t-30.5 -72t-67 -26t-67 26t-30.5 72zM901 78q0 46 30.5 72t67 26t67 -26t30.5 -72t-30.5 -72t-67 -26t-67 26t-30.5 72z" />
<glyph unicode="&#x202f;" horiz-adv-x="377" />
<glyph unicode="&#x2039;" horiz-adv-x="628" d="M96 610l285 451h145v-8l-278 -443l260 -413l18 -37h-145z" />
<glyph unicode="&#x203a;" horiz-adv-x="630" d="M104 154l279 452l-279 443v6h146l285 -449l-285 -452h-146z" />
<glyph unicode="&#x205f;" horiz-adv-x="471" />
<glyph unicode="&#x20ac;" horiz-adv-x="1249" d="M86 532v119h117q-2 14 -2 58q0 40 2 63h-117v117h135q21 122 73.5 223t136.5 178t207.5 119.5t276.5 42.5q104 0 209 -31l-39 -118q-76 22 -170 22q-242 0 -373.5 -106t-179.5 -330h541l-31 -117h-536q-2 -18 -2 -61q0 -46 2 -60h508l-27 -119h-457q84 -417 555 -417 q109 0 213 39l41 -129q-119 -45 -254 -45q-302 0 -473 145t-223 407h-133z" />
<glyph unicode="&#x2122;" horiz-adv-x="1619" d="M127 1346v88h559v-88h-231v-486h-101v486h-227zM793 860v574h94l235 -301l238 301h90v-574h-100v412l-222 -268h-18l-217 272v-416h-100z" />
<glyph unicode="&#x25fc;" horiz-adv-x="1013" d="M0 0v1014h1014v-1014h-1014z" />
<glyph unicode="&#xfb01;" horiz-adv-x="1173" d="M70 883v118h200v84q0 170 81 264.5t243 94.5q98 0 172 -45l-45 -109q-55 31 -125 31q-188 0 -188 -236v-84h311v-118h-311v-883h-138v883h-200zM852 1329q0 45 29 70.5t67 25.5q40 0 69.5 -25.5t29.5 -70.5q0 -46 -29.5 -71t-69.5 -25q-39 0 -67.5 25t-28.5 71zM879 0 v1016h137v-1016h-137z" />
<glyph unicode="&#xfb02;" horiz-adv-x="1173" d="M70 883v118h200v84q0 170 81.5 264.5t242.5 94.5q76 0 137 -27l-24 -119q-53 27 -117 27q-182 0 -182 -240v-84h290v-118h-290v-883h-138v883h-200zM862 0v1434h137v-1434h-137z" />
</font>
</defs>
</svg>
