<?xml version="1.0" standalone="no"?>
<!DOCTYPE svg PUBLIC "-//W3C//DTD SVG 1.1//EN" "http://www.w3.org/Graphics/SVG/1.1/DTD/svg11.dtd" >
<svg xmlns="http://www.w3.org/2000/svg" xmlns:xlink="http://www.w3.org/1999/xlink" version="1.1">
<metadata>
Created by FontForge 20170731 at Tue Oct  2 01:24:17 2012
 By Aleksey,,,
Copyright (c) 2012 by Fontfabric LLC. All rights reserved.
</metadata>
<defs>
<font id="NexaThin" horiz-adv-x="631" >
  <font-face 
    font-family="Nexa Thin"
    font-weight="100"
    font-stretch="normal"
    units-per-em="1000"
    panose-1="2 0 5 0 0 0 0 0 0 0"
    ascent="750"
    descent="-250"
    x-height="494"
    cap-height="700"
    bbox="-129 -294 1040 952"
    underline-thickness="50"
    underline-position="-200"
    unicode-range="U+000D-FB02"
  />
<missing-glyph horiz-adv-x="648" 
d="M37 0v700h538v-700h-538zM127 448h21q0 45 25.5 72.5t56.5 35.5t70 8q31 0 57.5 -5t52.5 -17t41 -36.5t15 -59.5q0 -51 -20.5 -73.5t-55.5 -30.5q-70 -20 -92 -52t-23 -105h22q0 74 15 95.5t79 39.5q42 9 68 36.5t27 89.5q0 40 -16 68.5t-44.5 43t-59 21t-66.5 6.5
q-72 0 -122.5 -33t-50.5 -104zM270 119q0 -19 20.5 -19t20.5 19t-20.5 19t-20.5 -19z" />
    <glyph glyph-name=".notdef" horiz-adv-x="648" 
d="M37 0v700h538v-700h-538zM127 448h21q0 45 25.5 72.5t56.5 35.5t70 8q31 0 57.5 -5t52.5 -17t41 -36.5t15 -59.5q0 -51 -20.5 -73.5t-55.5 -30.5q-70 -20 -92 -52t-23 -105h22q0 74 15 95.5t79 39.5q42 9 68 36.5t27 89.5q0 40 -16 68.5t-44.5 43t-59 21t-66.5 6.5
q-72 0 -122.5 -33t-50.5 -104zM270 119q0 -19 20.5 -19t20.5 19t-20.5 19t-20.5 -19z" />
    <glyph glyph-name=".null" horiz-adv-x="0" 
 />
    <glyph glyph-name="nonmarkingreturn" horiz-adv-x="333" 
 />
    <glyph glyph-name="CR" unicode="&#xd;" horiz-adv-x="352" 
 />
    <glyph glyph-name="space" unicode=" " horiz-adv-x="271" 
 />
    <glyph glyph-name="exclam" unicode="!" horiz-adv-x="227" 
d="M98 700h31v-569h-31v569zM88 26q0 17 14 23.5t27.5 0t13.5 -23.5t-13.5 -24t-27.5 0t-14 24z" />
    <glyph glyph-name="quotedbl" unicode="&#x22;" horiz-adv-x="315" 
d="M79 705h28v-253h-28v253zM209 705h27v-253h-27v253z" />
    <glyph glyph-name="numbersign" unicode="#" horiz-adv-x="612" 
d="M249 700h24l-42 -172h224l43 172h24l-43 -172h96v-19h-100l-78 -308h99v-21h-104l-44 -180h-24l44 180h-224l-44 -180h-24l44 180h-82v21h85l79 308h-85v19h90zM448 507h-220l-78 -304h221z" />
    <glyph glyph-name="dollar" unicode="$" horiz-adv-x="637" 
d="M308 805h25v-103q75 -2 141 -32t98 -86l-32 -20q-28 53 -89 77t-130 26q-33 0 -70 -8t-73.5 -24t-59.5 -46.5t-22 -69.5q1 -27 13.5 -48t30.5 -35t50 -26t60 -18.5t73 -15.5q127 -27 171 -48q97 -46 97 -148q0 -47 -24.5 -82.5t-64.5 -55.5t-82.5 -30t-87.5 -12v-97h-24
v98q-83 2 -156.5 34t-107.5 95l31 17q31 -59 100.5 -84.5t146.5 -25.5q36 0 73.5 7t75.5 22t62.5 45t24.5 70q0 32 -13.5 57t-34 40.5t-53 27.5t-62.5 19.5t-70 15.5q-7 1 -11 2q-40 9 -54 12t-48.5 12.5t-48.5 16.5t-38 21t-34.5 28.5t-19.5 36t-10 46.5q-1 46 21.5 82.5
t60 58t79.5 32.5t86 13v103z" />
    <glyph glyph-name="percent" unicode="%" horiz-adv-x="711" 
d="M117 0l442 702h34l-442 -702h-34zM521 286q57 0 96.5 -30.5t48.5 -73.5t0 -86t-48.5 -73.5t-96.5 -30.5q-41 0 -73.5 16t-49 42t-24.5 57.5t0 63t24.5 57.5t49 42t73.5 16zM521 260q-46 0 -77 -24.5t-38.5 -60t0 -71t39 -60t77.5 -24.5t77 24.5t38.5 60t0 71t-39 60
t-77.5 24.5zM190 703q57 0 96.5 -30.5t48.5 -73.5t0 -86t-48.5 -73.5t-96.5 -30.5q-48 0 -83 22t-51 54.5t-16 70.5t16 70.5t51 54.5t83 22zM190 677q-46 0 -77 -24.5t-38.5 -60t0 -71t39 -60t77.5 -24.5t77 24.5t38.5 60t0 71t-39 60t-77.5 24.5z" />
    <glyph glyph-name="ampersand" unicode="&#x26;" horiz-adv-x="679" 
d="M547 343v-165q0 -73 20.5 -115.5t72.5 -41.5v-20q-41 -7 -72 19t-41 69q-36 -58 -88 -78t-120 -20q-125 0 -189.5 52t-64.5 136q0 65 44 111t105 67q-59 17 -98.5 61t-39.5 104q0 78 62 129t183 51q46 0 81 -6.5t68 -23t50.5 -51.5t17.5 -86h-27q0 44 -15 73t-44 43
t-59.5 19t-72.5 5q-103 0 -158 -41.5t-54 -110.5q1 -54 36.5 -90t81 -49t97.5 -13h290v-28h-66zM523 178v165h-202q-105 0 -165 -49t-60 -114q0 -74 54.5 -117t167.5 -43q37 0 70 7t65 23.5t51 49t19 78.5z" />
    <glyph glyph-name="quotesingle" unicode="'" horiz-adv-x="185" 
d="M79 705h27v-253h-27v253z" />
    <glyph glyph-name="parenleft" unicode="(" horiz-adv-x="313" 
d="M269 735l18 -26q-199 -133 -202 -409q-2 -126 49.5 -237.5t151.5 -182.5l-16 -26q-105 68 -161 188t-56 256t55.5 253t160.5 184z" />
    <glyph glyph-name="parenright" unicode=")" horiz-adv-x="314" 
d="M26 709l18 26q105 -67 160.5 -184t55.5 -253t-56 -256t-161 -188l-16 26q100 71 151.5 182.5t49.5 237.5q-3 276 -202 409z" />
    <glyph glyph-name="asterisk" unicode="*" horiz-adv-x="332" 
d="M235 529l-22 -16l-49 70l-52 -70l-22 15l55 69l-76 24l7 22l75 -23v77h27v-77l82 22l7 -22l-83 -23z" />
    <glyph glyph-name="plus" unicode="+" horiz-adv-x="500" 
d="M54 324v33h182v178h29v-178h181v-33h-181v-183h-29v183h-182z" />
    <glyph glyph-name="comma" unicode="," horiz-adv-x="199" 
d="M59 -79l30 74q-17 5 -17 24q0 17 14 24.5t27.5 0.5t13.5 -25q0 -6 -8 -26l-31 -72h-29z" />
    <glyph glyph-name="hyphen" unicode="-" horiz-adv-x="497" 
d="M76 273v30h345v-30h-345z" />
    <glyph glyph-name="period" unicode="." horiz-adv-x="205" 
d="M75 22q0 17 13.5 24t27.5 0t14 -24t-14 -24.5t-27.5 0t-13.5 24.5z" />
    <glyph glyph-name="slash" unicode="/" horiz-adv-x="476" 
d="M29 -82l383 839h36l-384 -839h-35z" />
    <glyph glyph-name="zero" unicode="0" horiz-adv-x="664" 
d="M72 260v181q0 85 38.5 147t96.5 90t125 28t125 -28t96.5 -90t38.5 -147v-181q0 -64 -22.5 -116t-59 -83.5t-83 -49t-95.5 -17.5t-95.5 17t-83 49t-59 84t-22.5 116zM106 441v-181q0 -75 33.5 -129.5t83.5 -79t109 -24t109 25t83.5 79t33.5 128.5v181q0 56 -19.5 101.5
t-51 73.5t-72.5 43t-83 15t-83 -15t-72.5 -43t-51 -73.5t-19.5 -101.5z" />
    <glyph glyph-name="one" unicode="1" horiz-adv-x="387" 
d="M47 0v31h140v635l-133 -32v29l168 37v-669h142v-31h-317z" />
    <glyph glyph-name="two" unicode="2" horiz-adv-x="666" 
d="M103 153v-119h493v-34h-527v152q0 55 23.5 94t64 59t85 29t96.5 9q41 0 80.5 8.5t76 26.5t59 52t22.5 79q0 48 -23 83t-60.5 53t-76.5 26t-80 8q-40 0 -77.5 -7.5t-73 -24.5t-57 -50t-21.5 -79h-34q-1 52 22 90.5t62.5 59.5t84 31t94.5 10q51 0 97 -11t85.5 -33.5t63 -63
t24.5 -93.5q0 -63 -42.5 -109.5t-101 -67t-121.5 -20.5q-238 -2 -238 -158z" />
    <glyph glyph-name="three" unicode="3" horiz-adv-x="659" 
d="M103 535h-31q0 51 23.5 87.5t63.5 54t81 25t89 7.5q123 0 188 -51.5t66 -126.5q0 -61 -47.5 -110t-113.5 -60q69 -11 121 -61.5t52 -116.5q0 -79 -66.5 -135.5t-196.5 -56.5q-50 0 -93 7.5t-85.5 26t-67.5 56t-25 90.5h32q0 -40 16.5 -68.5t39.5 -43.5t59 -23t62.5 -10
t62.5 -2q117 0 174.5 45.5t57.5 111.5q0 65 -64.5 114.5t-170.5 49.5h-117v29h115q108 0 166.5 49t59.5 108q1 64 -59 107.5t-165 43.5q-227 0 -227 -147z" />
    <glyph glyph-name="four" unicode="4" horiz-adv-x="636" 
d="M466 0v164h-434l-4 33l440 503h33v-504h90v-32h-90v-164h-35zM68 196h398v452z" />
    <glyph glyph-name="five" unicode="5" horiz-adv-x="656" 
d="M113 422h247q71 0 121.5 -19t76 -52t36 -67t10.5 -74q0 -89 -67.5 -151.5t-204.5 -62.5q-49 0 -93 9t-84.5 29.5t-65 60t-24.5 94.5h35q0 -156 233 -156q121 0 178.5 49t57.5 126q0 185 -209 185h-277v307h482v-29h-452v-249z" />
    <glyph glyph-name="six" unicode="6" horiz-adv-x="685" 
d="M120 525v-221q80 113 239 113q69 0 128 -21t100 -70.5t41 -120.5q0 -57 -23.5 -100t-63.5 -66.5t-85.5 -34.5t-97.5 -11q-71 0 -129.5 19.5t-100.5 69.5t-42 125v317q0 89 77 137t184 48t180 -44.5t82 -124.5h-35q-6 65 -69 101.5t-159 36.5q-92 -1 -159 -41t-67 -112z
M358 27q43 0 81.5 8.5t75 27.5t58 55.5t21.5 86.5q0 47 -22 83.5t-57.5 56.5t-75 29.5t-80.5 9.5q-55 0 -107.5 -17.5t-91.5 -60t-39 -100.5q-1 -49 21 -85.5t58.5 -56t76 -28.5t81.5 -9z" />
    <glyph glyph-name="seven" unicode="7" horiz-adv-x="563" 
d="M115 0l401 669h-482v31h509l7 -38l-397 -662h-38z" />
    <glyph glyph-name="eight" unicode="8" horiz-adv-x="700" 
d="M64 177q0 75 52 124t122 61q-163 44 -163 167q0 52 26.5 90.5t69.5 58.5t87.5 29t91.5 9t91 -8.5t87.5 -28t70 -58t26.5 -92.5q0 -120 -167 -169q70 -12 123.5 -61.5t53.5 -121.5q0 -53 -27 -92t-70.5 -60t-90.5 -30.5t-97 -9.5t-97 10t-91 30.5t-70.5 60t-27.5 91.5z
M593 528q0 44 -25.5 77t-65 49.5t-78 24t-74.5 7.5t-73 -6.5t-77.5 -22.5t-66.5 -49.5t-26 -79.5q0 -42 25.5 -72.5t65 -45.5t78 -22t74.5 -7t74.5 7t78.5 22t65 45.5t25 72.5zM350 348q-35 0 -75 -8.5t-81.5 -26.5t-68.5 -53.5t-27 -81.5t27.5 -80t70.5 -50t81.5 -23
t72.5 -7t72.5 7t81 23.5t70.5 50t29 79.5q0 45 -27.5 80.5t-69.5 53.5t-82 27t-74 9z" />
    <glyph glyph-name="nine" unicode="9" horiz-adv-x="684" 
d="M565 177v221q-40 -56 -104.5 -84.5t-135.5 -28.5q-69 0 -128 21t-100 70.5t-41 120.5q0 57 23.5 100t63.5 66.5t85.5 34.5t97.5 11q70 0 129 -19.5t101 -69.5t42 -125v-317q0 -89 -77 -137t-184 -48t-180 44.5t-81 124.5h35q5 -65 68 -101.5t159 -36.5q92 1 159.5 41
t67.5 112zM326 675q-43 0 -81.5 -8.5t-75 -27.5t-58.5 -55.5t-22 -86.5q0 -48 22 -84.5t58 -56t75.5 -29t80.5 -9.5q40 0 80.5 10.5t76 31.5t58 56.5t23.5 79.5q0 49 -22 85.5t-58.5 56t-75.5 28.5t-81 9z" />
    <glyph glyph-name="colon" unicode=":" horiz-adv-x="215" 
d="M76 324q0 20 15.5 28t31.5 0t16 -28t-15.5 -28t-31.5 0t-16 28zM76 22q0 19 15.5 27t31.5 0t16 -27q0 -20 -15.5 -28t-31.5 0t-16 28z" />
    <glyph glyph-name="semicolon" unicode=";" horiz-adv-x="235" 
d="M152 324q0 -20 -16 -28t-31.5 0t-15.5 28t15.5 28t31.5 0t16 -28zM74 -87l34 79q-19 10 -19 32q0 20 16 28.5t32 0.5t16 -28l-42 -113l-1 1h-36z" />
    <glyph glyph-name="less" unicode="&#x3c;" horiz-adv-x="354" 
d="M61 341l207 175l18 -21l-201 -176l206 -177l-23 -22l-207 176v45z" />
    <glyph glyph-name="equal" unicode="=" horiz-adv-x="551" 
d="M80 395v35h391v-35h-391zM80 205v34h391v-34h-391z" />
    <glyph glyph-name="greater" unicode="&#x3e;" horiz-adv-x="353" 
d="M86 516l206 -175v-45l-206 -176l-23 23l206 176l-201 174z" />
    <glyph glyph-name="question" unicode="?" horiz-adv-x="585" 
d="M69 512h-31q-1 106 66 154t170 48q52 0 96 -9.5t85 -31t64.5 -63.5t24.5 -100q0 -90 -37 -131t-96 -54q-41 -12 -62.5 -21t-39.5 -21.5t-24.5 -33.5t-10 -48.5t-3.5 -74.5h-31q-1 106 33 154.5t137 76.5q51 12 78 44.5t27 108.5q0 52 -22 88t-60 53.5t-76 24.5t-83 7
q-204 0 -205 -171zM232 26q0 18 14.5 26t29 0t14.5 -26t-14.5 -26t-29 0t-14.5 26z" />
    <glyph glyph-name="at" unicode="@" horiz-adv-x="886" 
d="M442 677q-162 0 -257 -100.5t-95 -253.5t94.5 -249t258.5 -96q100 0 160 44l17 -27q-77 -49 -176 -49q-182 0 -284 108t-102 269q0 160 102.5 272t281.5 112q168 0 280.5 -103t112.5 -291q0 -224 -109 -224q-32 -1 -54 21.5t-23 71.5q-30 -53 -88.5 -86.5t-124.5 -33.5
q-103 0 -176.5 74.5t-73.5 177.5q0 114 71.5 183t177.5 69q68 0 126.5 -32t90.5 -95l-1 105h30v-361q-1 -33 12.5 -49.5t32.5 -16.5q78 0 78 196q0 173 -100.5 268.5t-261.5 95.5zM435 533q-91 0 -154 -59t-63 -160q0 -91 65 -155.5t153 -64.5q103 0 160.5 65.5t57.5 153.5
t-58 154t-161 66z" />
    <glyph glyph-name="A" unicode="A" horiz-adv-x="730" 
d="M32 0l314 700h38l314 -700h-38l-81 182h-429l-80 -182h-38zM162 213h404l-201 457z" />
    <glyph glyph-name="B" unicode="B" horiz-adv-x="691" 
d="M104 0v700h276q94 0 161 -47t67 -141q0 -57 -34 -99t-90 -56q72 -19 110.5 -65.5t38.5 -114.5q0 -42 -15.5 -74t-40.5 -51t-59 -31t-67.5 -16.5t-70.5 -4.5h-276zM136 669v-297h253q35 0 65.5 6t59 21t45.5 44t17 70q0 44 -18 75.5t-47.5 48.5t-62 24.5t-68.5 7.5h-244z
M136 341v-310h244q221 0 221 147q-1 84 -62.5 123.5t-149.5 39.5h-253z" />
    <glyph glyph-name="C" unicode="C" horiz-adv-x="720" 
d="M644 119l23 -20q-103 -105 -252 -105q-166 0 -261 101t-96 251q-2 96 37 177t122.5 133t197.5 52q149 0 252 -104l-22 -21q-94 94 -230 94q-154 0 -240 -94t-85 -236q2 -138 88 -230t237 -92q133 0 229 94z" />
    <glyph glyph-name="D" unicode="D" horiz-adv-x="746" 
d="M104 0v700h227q168 0 260.5 -99t96.5 -243q2 -70 -20 -133.5t-64.5 -114t-113 -80.5t-159.5 -30h-227zM136 31h195q80 0 143.5 27.5t103 73.5t59.5 104t19 122q-2 83 -37 152t-110 114t-178 45h-195v-638z" />
    <glyph glyph-name="E" unicode="E" horiz-adv-x="652" 
d="M136 31h456v-31h-488v700h473v-31h-441v-300h420v-31h-420v-307z" />
    <glyph glyph-name="F" unicode="F" horiz-adv-x="626" 
d="M104 -1v701h463v-31h-431v-305h418v-31h-418v-334h-32z" />
    <glyph glyph-name="G" unicode="G" horiz-adv-x="746" 
d="M667 604l-21 -23q-96 96 -228 96q-157 0 -242.5 -94.5t-84.5 -231.5q0 -139 87 -233t240 -94q61 0 124.5 25t103.5 68v208h-262v31h294v-253q-107 -110 -260 -110q-112 0 -195 49.5t-123.5 129.5t-40.5 178q-1 164 100 261t259 97q144 0 249 -104z" />
    <glyph glyph-name="H" unicode="H" horiz-adv-x="749" 
d="M645 0h-32v327h-477v-327h-32v700h32v-342h477v342h32v-700z" />
    <glyph glyph-name="I" unicode="I" horiz-adv-x="240" 
d="M136 0h-32v700h32v-700z" />
    <glyph glyph-name="J" unicode="J" horiz-adv-x="664" 
d="M253 669v31h315v-445q0 -123 -76 -194t-193 -71q-116 0 -192 76t-76 191h29q0 -101 70 -168.5t169 -67.5q103 0 170 61.5t67 172.5v414h-283z" />
    <glyph glyph-name="K" unicode="K" horiz-adv-x="570" 
d="M134 1h-32v699h32v-325l358 325h40v-5l-365 -329l398 -363v-3h-44l-387 354v-353z" />
    <glyph glyph-name="L" unicode="L" horiz-adv-x="559" 
d="M104 700h32v-669h405v-31h-437v700z" />
    <glyph glyph-name="M" unicode="M" horiz-adv-x="851" 
d="M715 0v659l-283 -442h-10l-286 440v-657h-32v700h42l280 -434l276 434h45v-700h-32z" />
    <glyph glyph-name="N" unicode="N" horiz-adv-x="740" 
d="M104 0v700h3l500 -616l-3 162v454h32v-700l-503 619l3 -165v-454h-32z" />
    <glyph glyph-name="O" unicode="O" horiz-adv-x="817" 
d="M407 709q85 0 154 -30t111.5 -80.5t65 -114.5t22.5 -134q-1 -96 -39 -176t-119.5 -132t-193.5 -52q-84 0 -152 30.5t-111 81.5t-65.5 115t-22.5 135q0 66 21 128t62 114t110 83.5t157 31.5zM728 350q0 138 -85 233t-236 95q-77 0 -139.5 -28t-100.5 -74.5t-58 -104
t-20 -120.5t21 -121.5t59.5 -105.5t100.5 -75t138 -28q149 0 235 97.5t85 231.5z" />
    <glyph glyph-name="P" unicode="P" horiz-adv-x="664" 
d="M405 251h-269v-251h-32v700h301q47 0 87 -15.5t65.5 -41.5t43.5 -59.5t22 -71t0 -74.5t-22 -71t-43.5 -60t-65.5 -41t-87 -15zM136 282h269q51 0 91.5 21.5t61.5 55.5t30.5 75.5t0 82.5t-30.5 75t-61.5 55.5t-91.5 21.5h-269v-387z" />
    <glyph glyph-name="Q" unicode="Q" horiz-adv-x="819" 
d="M747 -2l-93 84q-95 -88 -243 -88q-170 0 -262.5 104.5t-90.5 258.5q2 148 96.5 249t256.5 101q110 0 191.5 -50.5t121 -131t38.5 -177.5q0 -140 -87 -243l92 -86zM411 676q-137 0 -229 -90t-92 -229q0 -144 83 -238t238 -94q150 0 234 93t85 229q2 140 -83.5 234.5
t-235.5 94.5z" />
    <glyph glyph-name="R" unicode="R" horiz-adv-x="692" 
d="M603 0l-254 275h-213v-275h-32v700h302q104 0 161 -63.5t58 -150.5q1 -95 -58 -155.5t-176 -55.5l255 -275h-43zM136 306h262q96 0 145.5 48.5t49.5 131.5q0 74 -49.5 128.5t-137.5 54.5h-270v-363z" />
    <glyph glyph-name="S" unicode="S" horiz-adv-x="653" 
d="M575 604l-22 -22q-69 94 -225 94q-36 0 -70 -6t-72.5 -21t-62 -49t-23.5 -83q0 -28 13 -49t30.5 -34.5t53 -25.5t61.5 -17.5t74 -15.5q130 -28 176 -50q95 -46 95 -144q0 -45 -18.5 -80t-46 -55.5t-65.5 -33t-71.5 -17t-69.5 -4.5q-83 0 -163.5 37.5t-119.5 109.5l28 16
q33 -63 107.5 -97.5t147.5 -34.5q38 0 74.5 6t76.5 22t64 49.5t24 81.5q0 21 -4 38t-16 31t-21 24t-31.5 20t-33 15t-40.5 12.5t-39.5 9.5t-43.5 9q-13 3 -19 4q-127 28 -171 49q-84 42 -84 124q-1 53 23 92t65 59.5t84 29.5t89 9q162 0 246 -103z" />
    <glyph glyph-name="T" unicode="T" horiz-adv-x="587" 
d="M15 669v31h557v-31h-263v-669h-32v669h-262z" />
    <glyph glyph-name="U" unicode="U" horiz-adv-x="708" 
d="M580 700h32v-443q0 -66 -23 -118t-60.5 -83t-82.5 -47.5t-93 -16.5q-49 0 -94 16.5t-82 48t-59 83.5t-22 117v443h32v-443q0 -114 67.5 -174t157.5 -60t158.5 60t68.5 174v443z" />
    <glyph glyph-name="V" unicode="V" horiz-adv-x="686" 
d="M324 -2l-288 702h36l271 -664l271 664h35l-287 -702h-38z" />
    <glyph glyph-name="W" unicode="W" horiz-adv-x="1082" 
d="M286 -2l-242 702h34l229 -674l226 674h16l224 -674l232 674h35l-246 -702h-45l-117 354l-91 286l-92 -283l-119 -357h-44z" />
    <glyph glyph-name="X" unicode="X" horiz-adv-x="588" 
d="M294 385l223 315h36l-239 -340l261 -360h-40l-124 172l-117 166l-122 -172l-119 -166h-40l260 360l-238 340h37z" />
    <glyph glyph-name="Y" unicode="Y" horiz-adv-x="650" 
d="M309 0v278l-275 422h38l253 -392l252 392h38l-274 -422v-278h-32z" />
    <glyph glyph-name="Z" unicode="Z" horiz-adv-x="580" 
d="M56 670v30h490v-8l-474 -661h474v-31h-527v10l473 660h-436z" />
    <glyph glyph-name="bracketleft" unicode="[" horiz-adv-x="296" 
d="M95 -164v880h166v-33h-131v-814h131v-33h-166z" />
    <glyph glyph-name="backslash" unicode="\" horiz-adv-x="476" 
d="M447 -82h-34l-384 839h35z" />
    <glyph glyph-name="bracketright" unicode="]" horiz-adv-x="294" 
d="M199 717v-880h-166v33h132v814h-132v33h166z" />
    <glyph glyph-name="asciicircum" unicode="^" horiz-adv-x="557" 
d="M91 393h-34l-2 2l203 305h43l201 -305l-2 -2h-32l-189 289z" />
    <glyph glyph-name="underscore" unicode="_" horiz-adv-x="619" 
d="M76 -63v31h467v-31h-467z" />
    <glyph glyph-name="grave" unicode="`" horiz-adv-x="233" 
d="M155 582h-30l-85 119h39l76 -116v-3z" />
    <glyph glyph-name="a" unicode="a" 
d="M546 0h-30v63l6 71q-24 -68 -87 -104.5t-133 -35.5q-105 0 -177.5 69.5t-72.5 183.5q0 113 71.5 183t176.5 70q74 0 138.5 -38.5t83.5 -107.5l-6 80v60h30v-494zM299 471q-93 0 -155 -61t-62 -163t64 -163t157 -61q106 0 160 65.5t54 163.5q0 93 -57 156t-161 63z" />
    <glyph glyph-name="b" unicode="b" 
d="M115 0h-30v701h30v-267l-6 -80q19 69 83.5 107.5t138.5 38.5q104 0 176 -70.5t72 -182.5q0 -114 -72.5 -183.5t-177.5 -69.5q-70 -1 -133 35.5t-87 104.5l6 -71v-63zM332 471q-104 0 -161 -63t-57 -156q0 -98 54 -163.5t160 -65.5q94 0 157.5 60t63.5 164q0 102 -62 163
t-155 61z" />
    <glyph glyph-name="c" unicode="c" horiz-adv-x="530" 
d="M462 89l20 -20q-73 -73 -177 -73q-106 0 -179.5 70t-73.5 181q0 112 72 181.5t181 69.5q104 0 180 -74l-20 -19q-61 64 -161 64q-94 0 -158 -59t-64 -163q0 -103 64 -162.5t159 -59.5q94 0 157 64z" />
    <glyph glyph-name="d" unicode="d" 
d="M546 0h-30v63l6 71q-24 -68 -87 -104.5t-133 -35.5q-105 0 -177.5 69.5t-72.5 183.5q0 113 71.5 183t176.5 70q74 0 138.5 -38.5t83.5 -107.5l-6 80v265h30v-699zM299 471q-93 0 -155 -61t-62 -163t64 -163t157 -61q106 0 160 65.5t54 163.5q0 93 -57 156t-161 63z" />
    <glyph glyph-name="e" unicode="e" horiz-adv-x="589" 
d="M489 110l23 -17q-34 -47 -92.5 -72t-121.5 -25q-103 0 -174.5 67.5t-71.5 182.5q0 112 70 183t175 71q112 0 185.5 -67.5t60.5 -200.5h-461q8 -100 69.5 -153.5t146.5 -53.5q55 0 109 23t82 62zM82 260h434q3 101 -56 156t-163 55q-89 0 -148.5 -56t-66.5 -155z" />
    <glyph glyph-name="f" unicode="f" horiz-adv-x="346" 
d="M168 0h-30v464h-103v29h103v53q0 74 29.5 115t105.5 42q55 0 94 -33l-18 -21q-33 25 -77 25q-53 0 -78.5 -28.5t-25.5 -99.5v-53h168v-29h-168v-464z" />
    <glyph glyph-name="g" unicode="g" horiz-adv-x="607" 
d="M67 -104h29q1 -75 63 -118t146 -43q89 0 152 36t63 109q0 53 -36 87.5t-81.5 46.5t-97.5 12q-113 0 -182.5 63t-69.5 176q0 112 76.5 175.5t175.5 63.5q93 0 157 -46l50 59l22 -16l-51 -60q22 -24 34.5 -40t25 -53t12.5 -83q0 -72 -44 -138.5t-124 -82.5
q70 -12 116.5 -53.5t46.5 -110.5q0 -81 -71 -127.5t-174 -46.5q-97 0 -167 50.5t-71 139.5zM83 265q0 -104 61.5 -157t160.5 -53q98 0 159 63t61 147q0 54 -19 95.5t-51 66t-70 36.5t-80 12q-88 0 -155 -54t-67 -156z" />
    <glyph glyph-name="h" unicode="h" horiz-adv-x="586" 
d="M85 494v206h30v-206l-4 -123q53 127 198 129q198 0 198 -209v-291h-30v290q0 93 -41 136.5t-127 45.5q-78 2 -136 -53.5t-58 -137.5v-281h-30v494z" />
    <glyph glyph-name="i" unicode="i" horiz-adv-x="200" 
d="M75 661q0 25 26.5 25t26.5 -25q0 -17 -13 -24t-26.5 0t-13.5 24zM115 494h-30v-494h30v494z" />
    <glyph glyph-name="j" unicode="j" horiz-adv-x="200" 
d="M115 495h-30v-576q0 -31 -2.5 -51t-11.5 -41t-28 -31t-50 -10q-43 0 -79 22l-10 -27q46 -24 87 -24q40 0 66 12.5t38.5 37t16.5 50.5t3 62v576zM73 667q0 25 26.5 25t26.5 -25q0 -17 -13 -24t-26.5 0t-13.5 24z" />
    <glyph glyph-name="k" unicode="k" horiz-adv-x="451" 
d="M85 700h30v-426l249 220h46v-1l-268 -232l297 -259v-2h-40l-284 247v-247h-30v700z" />
    <glyph glyph-name="l" unicode="l" horiz-adv-x="216" 
d="M93 700h30v-700h-30v700z" />
    <glyph glyph-name="m" unicode="m" horiz-adv-x="946" 
d="M85 0v494h30l-1 -95q21 52 67 77.5t101 25.5q66 0 120 -31.5t73 -98.5q21 65 72.5 98t114.5 33q88 0 146.5 -56.5t58.5 -143.5v-303h-30v303q0 77 -49 124t-125 47t-124.5 -48.5t-48.5 -125.5v-300h-30v300q0 77 -49.5 125t-128.5 48q-74 -2 -120.5 -50t-46.5 -123v-300
h-30z" />
    <glyph glyph-name="n" unicode="n" horiz-adv-x="601" 
d="M85 0v494h30l-1 -112q28 61 82 90.5t113 30.5q102 0 157.5 -56t55.5 -156v-291h-30v290q0 90 -48 137.5t-135 46.5q-81 -1 -137.5 -56.5t-56.5 -136.5v-281h-30z" />
    <glyph glyph-name="o" unicode="o" horiz-adv-x="605" 
d="M52 246q0 117 73 186.5t178 69.5q104 0 177 -70.5t73 -185.5q0 -116 -73 -184t-178 -68t-177.5 68t-72.5 184zM523 246q0 103 -64 165t-157 62q-91 0 -155.5 -62.5t-64.5 -164.5t64 -162.5t156 -60.5t156.5 60.5t64.5 162.5z" />
    <glyph glyph-name="p" unicode="p" 
d="M85 494h30v-63l-6 -71q24 68 87 104.5t133 35.5q105 0 177.5 -69.5t72.5 -183.5q0 -112 -72 -182.5t-176 -70.5q-74 0 -138.5 38.5t-83.5 107.5l6 -80v-302h-30v736zM332 23q93 0 155 61t62 163q0 104 -63.5 164t-157.5 60q-106 0 -160 -65.5t-54 -163.5q0 -93 57 -156
t161 -63z" />
    <glyph glyph-name="q" unicode="q" 
d="M516 494h30v-736h-30v302l6 80q-19 -69 -83.5 -107.5t-138.5 -38.5q-104 0 -176 70.5t-72 182.5q0 114 72.5 183.5t177.5 69.5q70 1 133 -35.5t87 -104.5l-6 71v63zM299 23q104 0 161 63t57 156q0 98 -54 163.5t-160 65.5q-94 0 -157.5 -60t-63.5 -164q0 -102 62 -163
t155 -61z" />
    <glyph glyph-name="r" unicode="r" horiz-adv-x="391" 
d="M85 494h29v-54l-3 -68q18 56 67.5 91t110.5 35q52 0 96 -24l-13 -25q-38 21 -83 21q-73 -1 -123 -53.5t-50 -121.5v-295h-31v494z" />
    <glyph glyph-name="s" unicode="s" horiz-adv-x="503" 
d="M437 435l-19 -21q-62 59 -164 59q-71 0 -117.5 -25t-46.5 -78q0 -20 9 -35.5t19 -24.5t32 -17t33.5 -11t39 -8t32.5 -6q7 -1 29 -5t31.5 -6.5t29.5 -7t30 -9.5t25.5 -12.5t23.5 -16.5t17 -20.5t12.5 -27t3.5 -33.5q0 -37 -18 -64.5t-48.5 -42t-64 -21.5t-70.5 -7
q-69 0 -128 27t-85 74l24 17q30 -45 81.5 -67.5t108.5 -22.5q27 0 53.5 4.5t54.5 15.5t45 33.5t17 54.5q0 36 -27 58.5t-51.5 29.5t-79.5 17q-13 3 -20 4q-34 6 -48.5 9.5t-42 11t-41 15.5t-29 21t-22 31.5t-6.5 41.5q0 65 56 98t138 33q113 0 183 -66z" />
    <glyph glyph-name="t" unicode="t" horiz-adv-x="377" 
d="M145 643l30 3v-152h176v-26h-176v-321q0 -63 19 -94.5t79 -31.5q39 0 89 25l13 -25q-53 -28 -100 -28q-74 1 -102 38.5t-28 115.5v321h-108v26h108v149z" />
    <glyph glyph-name="u" unicode="u" horiz-adv-x="601" 
d="M516 494v-494h-30l1 112q-28 -61 -82 -90.5t-113 -30.5q-102 0 -157.5 56t-55.5 156v291h30v-290q0 -90 48 -137.5t135 -46.5q81 1 137.5 56.5t56.5 136.5v281h30z" />
    <glyph glyph-name="v" unicode="v" horiz-adv-x="532" 
d="M249 0l-206 494h34l189 -456l190 456h34l-207 -494h-34z" />
    <glyph glyph-name="w" unicode="w" horiz-adv-x="814" 
d="M223 0l-177 494h34l158 -453l162 453h17l160 -453l157 453h34l-176 -494h-32l-152 431l-153 -431h-32z" />
    <glyph glyph-name="x" unicode="x" horiz-adv-x="464" 
d="M20 0v2l196 255l-181 236v1h38l159 -210l160 210h37v-1l-181 -236l196 -255v-2h-36l-176 233l-176 -233h-36z" />
    <glyph glyph-name="y" unicode="y" horiz-adv-x="529" 
d="M454 494h34l-315 -736h-33l105 248l-200 488h33l184 -457z" />
    <glyph glyph-name="z" unicode="z" horiz-adv-x="448" 
d="M45 466v28h367v-9l-335 -456h334v-29h-381v9l334 457h-319z" />
    <glyph glyph-name="braceleft" unicode="{" horiz-adv-x="295" 
d="M39 312q81 0 81 126v160q0 154 139 119v-25q-52 13 -80.5 -6.5t-28.5 -87.5v-160q0 -27 -1.5 -43t-7 -38.5t-20.5 -37t-39 -20.5q19 -5 32.5 -16.5t20.5 -24t10.5 -32t4 -32t0.5 -33.5v-152q0 -68 28 -86t81 -5v-25q-139 -35 -139 116v152q0 125 -81 125v26z" />
    <glyph glyph-name="bar" unicode="|" horiz-adv-x="222" 
d="M96 702h30v-828h-30v828z" />
    <glyph glyph-name="braceright" unicode="}" horiz-adv-x="295" 
d="M256 312v-26q-81 0 -81 -125v-152q0 -151 -139 -116v25q53 -13 81 5t28 86v152q0 21 0.5 33.5t4 32t10.5 32t20.5 24t32.5 16.5q-24 6 -39 20.5t-20.5 37t-7 38.5t-1.5 43v160q0 68 -28.5 87.5t-80.5 6.5v25q139 35 139 -119v-160q0 -126 81 -126z" />
    <glyph glyph-name="asciitilde" unicode="~" horiz-adv-x="628" 
d="M521 341l27 -13q-50 -114 -190 -51l-85 47q-55 30 -102 13.5t-68 -66.5l-24 11q20 60 78 82t132 -15l82 -45q35 -17 60.5 -20.5t49.5 9.5t40 48z" />
    <glyph glyph-name="exclamdown" unicode="&#xa1;" horiz-adv-x="207" 
d="M119 -200h-31v569h31v-569zM129 474q0 -17 -13.5 -23.5t-27.5 0t-14 23.5t14 24t27.5 0t13.5 -24z" />
    <glyph glyph-name="cent" unicode="&#xa2;" horiz-adv-x="546" 
d="M291 -84v71q-104 6 -171.5 71.5t-67.5 179.5q0 110 67.5 177t171.5 73v57h30v-57q100 -8 161 -68l-23 -20q-60 59 -154 59q-97 0 -160 -57t-63 -164q0 -109 62.5 -165.5t160.5 -56.5q88 0 156 65l23 -21q-69 -67 -163 -72v-72h-30z" />
    <glyph glyph-name="sterling" unicode="&#xa3;" horiz-adv-x="639" 
d="M59 0v25q41 47 65 88.5t31 78t5 64.5t-11 63h-90v26h82q-29 107 -29 169q0 95 67.5 143t167.5 48q45 0 82.5 -8.5t70 -27t51 -54t18.5 -84.5h-26q0 43 -18 73.5t-48.5 45.5t-62 21t-67.5 6q-91 0 -149 -41.5t-58 -121.5q0 -21 3 -45.5t6.5 -39.5l10.5 -45t9 -39h273v-26
h-266q11 -47 11.5 -91t-22.5 -95.5t-71 -104.5h483v-28h-518z" />
    <glyph glyph-name="currency" unicode="&#xa4;" horiz-adv-x="564" 
d="M282 158q80 0 124 50.5t44 119.5q0 70 -44 120.5t-124 50.5q-81 0 -124.5 -50.5t-43.5 -120.5q0 -69 44 -119.5t124 -50.5zM152 169l-61 -60l-21 21l61 61q-48 56 -48.5 136t46.5 138l-59 59l21 21l59 -60q54 44 132 44q79 0 131 -44l60 60l21 -21l-59 -59
q47 -57 46.5 -137t-48.5 -137l61 -61l-21 -21l-62 60q-49 -41 -129 -41t-130 41z" />
    <glyph glyph-name="yen" unicode="&#xa5;" horiz-adv-x="644" 
d="M149 278v26h140l-258 396h38l253 -392l252 392h38l-257 -396h143v-26h-160v-67h160v-27h-160v-184h-32v184h-157v27h157v67h-157z" />
    <glyph glyph-name="brokenbar" unicode="&#xa6;" horiz-adv-x="227" 
d="M131 342h-35v363h35v-363zM96 274h35v-361h-35v361z" />
    <glyph glyph-name="section" unicode="&#xa7;" horiz-adv-x="522" 
d="M432 654l-18 -20q-58 55 -153 57q-64 1 -109.5 -26t-43.5 -77q4 -87 153 -103q41 -4 68.5 -10t60 -20t49.5 -41.5t17 -66.5q0 -48 -36.5 -78t-91.5 -37q131 -37 131 -124q-1 -125 -192 -125q-66 0 -122.5 25t-85.5 72l24 18q29 -43 79 -65t105 -22q162 0 162 98
q0 86 -172 111q-173 25 -178 129q-2 43 30.5 80.5t94.5 43.5q-122 22 -125 114q-2 59 50 94.5t132 35.5q102 0 171 -63zM428 347q0 38 -27 63.5t-61 34.5t-72 9q-77 0 -120.5 -24.5t-40.5 -80.5q1 -43 48 -69.5t110 -26.5q68 0 115.5 23t47.5 71z" />
    <glyph glyph-name="dieresis" unicode="&#xa8;" horiz-adv-x="441" 
d="M72 684q0 17 14 24.5t28 0t14 -24.5t-14 -24.5t-28 0t-14 24.5zM278 684q0 17 14 24.5t28 0t14 -24.5t-14 -24.5t-28 0t-14 24.5z" />
    <glyph glyph-name="copyright" unicode="&#xa9;" horiz-adv-x="839" 
d="M419 712q166 0 263.5 -106.5t97.5 -258.5t-97.5 -258.5t-263.5 -106.5q-167 0 -263 105.5t-96 259.5q0 98 40.5 180t123.5 133.5t195 51.5zM92 347q0 -143 88 -238t239 -95t239 95t88 238t-88 238t-239 95t-239 -95t-88 -238zM545 466l21 24q-54 56 -136 56
q-83 0 -139 -55t-56 -140q0 -87 55.5 -142t139.5 -55q83 0 135 55l-23 24q-46 -46 -113 -46t-114 46t-47 118q0 75 47 118.5t115 43.5q70 0 115 -47z" />
    <glyph glyph-name="ordfeminine" unicode="&#xaa;" horiz-adv-x="501" 
d="M404 377h-29v67q-48 -70 -133 -70q-69 0 -116.5 45t-47.5 121t47 120.5t117 45.5q39 0 75.5 -18.5t57.5 -52.5v66h29v-324zM242 675q-57 0 -95 -36.5t-38 -98.5t38 -98.5t95 -36.5q63 0 98.5 42t35.5 93t-35.5 93t-98.5 42zM90 275v32h329v-32h-329z" />
    <glyph glyph-name="guillemotleft" unicode="&#xab;" horiz-adv-x="367" 
d="M54 297l138 219h33l-134 -219l134 -220h-33zM278 77l-138 220l138 219h32l-134 -219l134 -220h-32z" />
    <glyph glyph-name="logicalnot" unicode="&#xac;" horiz-adv-x="501" 
d="M421 357v-176h-30v146h-305v30h335z" />
    <glyph glyph-name="registered" unicode="&#xae;" horiz-adv-x="839" 
d="M282 157v386h169q46 0 78 -24t39.5 -58t0 -68.5t-39.5 -58.5t-79 -25l135 -148v-4h-39l-132 151h-101v-151h-31zM313 337h134q35 0 59 18t30 44.5t1 52.5t-28.5 44t-57.5 18h-138v-177zM419 712q166 0 263.5 -106.5t97.5 -258.5t-97.5 -258.5t-263.5 -106.5
q-167 0 -263 105.5t-96 259.5q0 98 40.5 180t123.5 133.5t195 51.5zM92 347q0 -143 88 -238t239 -95t239 95t88 238t-88 238t-239 95t-239 -95t-88 -238z" />
    <glyph glyph-name="macron" unicode="&#xaf;" horiz-adv-x="367" 
d="M35 673v29h291v-29h-291z" />
    <glyph glyph-name="degree" unicode="&#xb0;" horiz-adv-x="308" 
d="M155 703q-41 0 -59.5 -33.5t-1.5 -67.5t62 -34q25 0 42 14t20.5 34t-0.5 39.5t-21 33.5t-42 14zM155 728q35 0 59.5 -19t30 -46t0 -54t-29 -46t-58.5 -19q-38 0 -63 19t-30.5 46t1 54t31 46t59.5 19z" />
    <glyph glyph-name="plusminus" unicode="&#xb1;" horiz-adv-x="522" 
d="M80 353v26h168v168h26v-168h167v-26h-167v-172h-26v172h-168zM90 55v26h344v-26h-344z" />
    <glyph glyph-name="twosuperior" unicode="&#xb2;" horiz-adv-x="352" 
d="M78 689h-29q0 105 129 105q51 0 91 -24t40 -77q0 -89 -130 -103q-33 -4 -52 -9t-35.5 -22.5t-16.5 -47.5v-43h231v-29h-261v73q0 26 9 44.5t20.5 28.5t32 17t33.5 9.5t35 4.5q48 5 76.5 21.5t28.5 55.5q0 72 -102 72q-100 0 -100 -76z" />
    <glyph glyph-name="threesuperior" unicode="&#xb3;" horiz-adv-x="343" 
d="M41 539h30q-1 -40 33 -58t69 -18t66 18t31 60q0 23 -23.5 44t-70.5 21h-54v29h50q33 0 60.5 16t27.5 47q0 28 -20.5 47t-67.5 19q-93 0 -96 -68h-30q2 51 37 74t89 23q52 0 85.5 -26t32.5 -69q0 -59 -64 -77q38 -8 56 -31.5t18 -48.5q0 -54 -34.5 -80.5t-93.5 -26.5
q-55 0 -92.5 26.5t-38.5 78.5z" />
    <glyph glyph-name="acute" unicode="&#xb4;" horiz-adv-x="220" 
d="M65 582h-30v3l76 116h39z" />
    <glyph glyph-name="_181" unicode="&#xb5;" horiz-adv-x="614" 
d="M512 0h-28l-1 108q-21 -58 -73.5 -87t-116.5 -28q-58 0 -111 28t-74 76v-326h-30v724h29v-292q0 -84 55 -132t131 -49q78 -1 133.5 49t55.5 148v276h30v-495z" />
    <glyph glyph-name="paragraph" unicode="&#xb6;" horiz-adv-x="765" 
d="M596 675h-290v-892h-28v417q-80 -2 -137.5 35t-83 93t-24.5 122q2 101 66 175t175 74h457v-24h-109v-892h-26v892z" />
    <glyph glyph-name="periodcentered" unicode="&#xb7;" horiz-adv-x="209" 
d="M76 294q0 17 14 24.5t28.5 0t14.5 -24.5t-14 -24.5t-28.5 0t-14.5 24.5z" />
    <glyph glyph-name="cedilla" unicode="&#xb8;" horiz-adv-x="275" 
d="M88 -66l-1 1l17 87h27l-13 -61q56 4 81 -26.5t13 -71.5q-18 -63 -95 -65q-70 0 -98 52l20 17q17 -23 35 -31.5t43 -9.5q54 0 67 45q9 31 -15 52t-81 11z" />
    <glyph glyph-name="onesuperior" unicode="&#xb9;" horiz-adv-x="225" 
d="M37 441v27h64v282l-56 -12v27l86 20v-317h68v-27h-162z" />
    <glyph glyph-name="ordmasculine" unicode="&#xba;" horiz-adv-x="486" 
d="M242 374q-68 0 -114.5 45t-46.5 121q0 78 46 122t115 44t115.5 -44t46.5 -122t-46.5 -122t-115.5 -44zM242 404q58 0 94 36.5t36 99.5t-36 99.5t-94 36.5q-57 0 -93 -36.5t-36 -99.5t36 -99.5t93 -36.5zM85 276v30h316v-30h-316z" />
    <glyph glyph-name="guillemotright" unicode="&#xbb;" horiz-adv-x="367" 
d="M175 516l138 -219l-138 -220h-33l134 220l-134 219h33zM227 297l-138 -220h-32l134 220l-134 219h32z" />
    <glyph glyph-name="onequarter" unicode="&#xbc;" horiz-adv-x="695" 
d="M169 -2h-33l368 704h33zM574 353h43v-235h41v-29h-41v-89h-30v89h-190l-3 21zM434 118h153v207zM51 359v27h64v282l-56 -12v27l86 20v-317h68v-27h-162z" />
    <glyph glyph-name="onehalf" unicode="&#xbd;" horiz-adv-x="761" 
d="M169 -2h-33l368 704h33zM51 359v27h64v282l-56 -12v27l86 20v-317h68v-27h-162zM482 250h-29q0 105 129 105q51 0 91 -24t40 -77q0 -89 -130 -103q-33 -4 -52 -9t-35.5 -22.5t-16.5 -47.5v-43h231v-29h-261v73q0 26 9 44.5t20.5 28.5t32 17t33.5 9.5t35 4.5
q48 5 76.5 21.5t28.5 55.5q0 72 -102 72q-100 0 -100 -76z" />
    <glyph glyph-name="threequarters" unicode="&#xbe;" horiz-adv-x="746" 
d="M223 -2h-33l379 707h33zM624 353h43v-235h41v-29h-41v-89h-30v89h-190l-3 21zM484 118h153v207zM47 462h30q-1 -40 32.5 -57.5t67.5 -17.5q35 0 65.5 17.5t30.5 59.5q0 22 -23.5 43t-69.5 21h-53v28h49q33 0 60 15.5t27 46.5q0 27 -20 46t-67 19q-92 0 -94 -67h-30
q2 50 36.5 73t87.5 23q51 0 84.5 -25.5t32.5 -68.5q0 -58 -64 -76q37 -7 55 -30.5t18 -47.5q0 -53 -34 -79.5t-92 -26.5q-54 0 -91 26t-38 78z" />
    <glyph glyph-name="questiondown" unicode="&#xbf;" horiz-adv-x="577" 
d="M513 -1h31q1 -106 -67.5 -154.5t-171.5 -48.5q-51 0 -95 9.5t-84 31.5t-63.5 64t-24.5 100q1 81 38 126.5t120 65.5q75 23 95 56.5t20 135.5h31q0 -111 -26 -152t-113 -70q-75 -22 -105.5 -53t-30.5 -109q0 -52 21.5 -88t59 -53.5t75.5 -25t82 -7.5q207 0 208 172z
M350 485q0 -18 -14.5 -26t-29 0t-14.5 26t14.5 26t29 0t14.5 -26z" />
    <glyph glyph-name="Agrave" unicode="&#xc0;" horiz-adv-x="730" 
d="M32 0l314 700h38l314 -700h-38l-81 182h-429l-80 -182h-38zM162 213h404l-201 457zM378 746h-30l-85 119h39l76 -116v-3z" />
    <glyph glyph-name="Aacute" unicode="&#xc1;" horiz-adv-x="730" 
d="M32 0l314 700h38l314 -700h-38l-81 182h-429l-80 -182h-38zM162 213h404l-201 457zM378 748h-30v3l76 116h39z" />
    <glyph glyph-name="Acircumflex" unicode="&#xc2;" horiz-adv-x="730" 
d="M32 0l314 700h38l314 -700h-38l-81 182h-429l-80 -182h-38zM162 213h404l-201 457zM380 871l130 -124v-3h-32l-114 105l-113 -105h-33v3l131 124h31z" />
    <glyph glyph-name="Atilde" unicode="&#xc3;" horiz-adv-x="730" 
d="M32 0l314 700h38l314 -700h-38l-81 182h-429l-80 -182h-38zM162 213h404l-201 457zM353 821l42 -23q53 -28 70 27l21 -8q-10 -40 -37 -52t-67 9l-42 23q-54 30 -70 -24l-21 8q10 38 37 49.5t67 -9.5z" />
    <glyph glyph-name="Adieresis" unicode="&#xc4;" horiz-adv-x="730" 
d="M32 0l314 700h38l314 -700h-38l-81 182h-429l-80 -182h-38zM162 213h404l-201 457zM234 786q0 17 14 24.5t28 0t14 -24.5t-14 -24.5t-28 0t-14 24.5zM440 786q0 17 14 24.5t28 0t14 -24.5t-14 -24.5t-28 0t-14 24.5z" />
    <glyph glyph-name="Aring" unicode="&#xc5;" horiz-adv-x="730" 
d="M460 765q0 -35 -18.5 -57.5t-47.5 -30.5l304 -677h-38l-81 182h-429l-80 -182h-38l304 678q-29 8 -47 30t-18 56q0 36 19.5 60t47.5 28.5t55.5 -1.5t47 -29.5t19.5 -56.5zM162 213h404l-201 457zM433 765q0 40 -34 57.5t-68 1t-34 -59.5q0 -24 14 -41t34 -20.5t40 0
t34 20.5t14 42z" />
    <glyph glyph-name="AE" unicode="&#xc6;" horiz-adv-x="910" 
d="M213 303l236 -1l1 372zM-11 0l442 700h409v-29h-360v-302h337v-30h-337v-307h376v-32h-407v273h-252l-171 -273h-37z" />
    <glyph glyph-name="Ccedilla" unicode="&#xc7;" horiz-adv-x="719" 
d="M420 -6l-11 -55q55 4 81 -28t15 -73q-9 -31 -37.5 -47t-62.5 -16q-30 0 -57 13.5t-40 37.5l22 19q27 -39 76 -39q24 -1 44.5 9.5t26.5 30.5q9 31 -17 53t-84 13l18 82q-157 8 -246 107.5t-90 244.5q-2 150 93 257t264 107q149 0 251 -103l-22 -21q-95 95 -229 95
q-154 0 -240 -95t-85 -237q2 -138 88 -230.5t237 -92.5q137 0 232 93l23 -20q-50 -50 -116 -77t-134 -28z" />
    <glyph glyph-name="Egrave" unicode="&#xc8;" horiz-adv-x="652" 
d="M136 31h456v-31h-488v700h473v-31h-441v-300h420v-31h-420v-307zM377 753h-30l-85 119h39l76 -116v-3z" />
    <glyph glyph-name="Eacute" unicode="&#xc9;" horiz-adv-x="652" 
d="M136 31h456v-31h-488v700h473v-31h-441v-300h420v-31h-420v-307zM347 754h-30v3l76 116h39z" />
    <glyph glyph-name="Ecircumflex" unicode="&#xca;" horiz-adv-x="652" 
d="M136 31h456v-31h-488v700h473v-31h-441v-300h420v-31h-420v-307zM367 890l139 -131v-4h-35l-121 112l-120 -112h-35v4l139 131h33z" />
    <glyph glyph-name="Edieresis" unicode="&#xcb;" horiz-adv-x="652" 
d="M136 31h456v-31h-488v700h473v-31h-441v-300h420v-31h-420v-307zM227 802q0 17 14 24.5t28 0t14 -24.5t-14 -24.5t-28 0t-14 24.5zM433 802q0 17 14 24.5t28 0t14 -24.5t-14 -24.5t-28 0t-14 24.5z" />
    <glyph glyph-name="Igrave" unicode="&#xcc;" horiz-adv-x="240" 
d="M136 0h-32v700h32v-700zM138 748h-30l-85 119h39l76 -116v-3z" />
    <glyph glyph-name="Iacute" unicode="&#xcd;" horiz-adv-x="240" 
d="M136 0h-32v700h32v-700zM125 755h-30v3l76 116h39z" />
    <glyph glyph-name="Icircumflex" unicode="&#xce;" horiz-adv-x="240" 
d="M136 0h-32v700h32v-700zM134 886l112 -134v-4h-28l-98 114l-96 -114h-28v4l111 134h27z" />
    <glyph glyph-name="Idieresis" unicode="&#xcf;" horiz-adv-x="240" 
d="M26 795q0 17 14 24.5t28 0t14 -24.5t-14 -24.5t-28 0t-14 24.5zM151 795q0 17 14 24.5t28 0t14 -24.5t-14 -24.5t-28 0t-14 24.5zM136 0h-32v700h32v-700z" />
    <glyph glyph-name="Eth" unicode="&#xd0;" horiz-adv-x="752" 
d="M32 342v28h78v330h227q168 0 260.5 -99t96.5 -243q2 -70 -20 -133.5t-64.5 -114t-113 -80.5t-159.5 -30h-227v342h-78zM142 31h195q80 0 143.5 27.5t103 73.5t59.5 104t19 122q-2 83 -37 152t-110 114t-178 45h-195v-299h159v-28h-159v-311z" />
    <glyph glyph-name="Ntilde" unicode="&#xd1;" horiz-adv-x="740" 
d="M104 0v700h3l500 -616l-3 162v454h32v-700l-503 619l3 -165v-454h-32zM361 830l42 -23q53 -28 70 27l21 -8q-10 -40 -37 -52t-67 9l-42 23q-54 30 -70 -24l-21 8q10 38 37 49.5t67 -9.5z" />
    <glyph glyph-name="Ograve" unicode="&#xd2;" horiz-adv-x="817" 
d="M407 709q85 0 154 -30t111.5 -80.5t65 -114.5t22.5 -134q-1 -96 -39 -176t-119.5 -132t-193.5 -52q-84 0 -152 30.5t-111 81.5t-65.5 115t-22.5 135q0 66 21 128t62 114t110 83.5t157 31.5zM728 350q0 138 -85 233t-236 95q-77 0 -139.5 -28t-100.5 -74.5t-58 -104
t-20 -120.5t21 -121.5t59.5 -105.5t100.5 -75t138 -28q149 0 235 97.5t85 231.5zM436 765h-30l-85 119h39l76 -116v-3z" />
    <glyph glyph-name="Oacute" unicode="&#xd3;" horiz-adv-x="817" 
d="M407 709q85 0 154 -30t111.5 -80.5t65 -114.5t22.5 -134q-1 -96 -39 -176t-119.5 -132t-193.5 -52q-84 0 -152 30.5t-111 81.5t-65.5 115t-22.5 135q0 66 21 128t62 114t110 83.5t157 31.5zM728 350q0 138 -85 233t-236 95q-77 0 -139.5 -28t-100.5 -74.5t-58 -104
t-20 -120.5t21 -121.5t59.5 -105.5t100.5 -75t138 -28q149 0 235 97.5t85 231.5zM422 764h-30v3l76 116h39z" />
    <glyph glyph-name="Ocircumflex" unicode="&#xd4;" horiz-adv-x="817" 
d="M407 709q85 0 154 -30t111.5 -80.5t65 -114.5t22.5 -134q-1 -96 -39 -176t-119.5 -132t-193.5 -52q-84 0 -152 30.5t-111 81.5t-65.5 115t-22.5 135q0 66 21 128t62 114t110 83.5t157 31.5zM728 350q0 138 -85 233t-236 95q-77 0 -139.5 -28t-100.5 -74.5t-58 -104
t-20 -120.5t21 -121.5t59.5 -105.5t100.5 -75t138 -28q149 0 235 97.5t85 231.5zM425 897l139 -131v-4h-35l-121 112l-120 -112h-35v4l139 131h33z" />
    <glyph glyph-name="Otilde" unicode="&#xd5;" horiz-adv-x="817" 
d="M407 709q85 0 154 -30t111.5 -80.5t65 -114.5t22.5 -134q-1 -96 -39 -176t-119.5 -132t-193.5 -52q-84 0 -152 30.5t-111 81.5t-65.5 115t-22.5 135q0 66 21 128t62 114t110 83.5t157 31.5zM728 350q0 138 -85 233t-236 95q-77 0 -139.5 -28t-100.5 -74.5t-58 -104
t-20 -120.5t21 -121.5t59.5 -105.5t100.5 -75t138 -28q149 0 235 97.5t85 231.5zM400 846l44 -24q56 -29 72 29l22 -9q-10 -41 -38.5 -53.5t-69.5 9.5l-43 23q-57 31 -73 -24l-22 8q11 40 39 51.5t69 -10.5z" />
    <glyph glyph-name="Odieresis" unicode="&#xd6;" horiz-adv-x="817" 
d="M407 709q85 0 154 -30t111.5 -80.5t65 -114.5t22.5 -134q-1 -96 -39 -176t-119.5 -132t-193.5 -52q-84 0 -152 30.5t-111 81.5t-65.5 115t-22.5 135q0 66 21 128t62 114t110 83.5t157 31.5zM728 350q0 138 -85 233t-236 95q-77 0 -139.5 -28t-100.5 -74.5t-58 -104
t-20 -120.5t21 -121.5t59.5 -105.5t100.5 -75t138 -28q149 0 235 97.5t85 231.5zM276 805q0 17 14 24.5t28 0t14 -24.5t-14 -24.5t-28 0t-14 24.5zM482 805q0 17 14 24.5t28 0t14 -24.5t-14 -24.5t-28 0t-14 24.5z" />
    <glyph glyph-name="multiply" unicode="&#xd7;" horiz-adv-x="454" 
d="M78 455l19 20l131 -130l129 128l20 -20l-130 -127l134 -131l-20 -21l-134 131l-133 -135l-19 20l133 136z" />
    <glyph glyph-name="Oslash" unicode="&#xd8;" horiz-adv-x="817" 
d="M407 709q109 0 191 -49l59 98h36l-69 -115q66 -49 101 -127t35 -166q-1 -96 -39 -176t-119.5 -132t-193.5 -52q-88 0 -159 33l-63 -104h-35l71 118q-80 47 -122.5 132t-42.5 183q0 66 21 128t62 114t110 83.5t157 31.5zM89 351q0 -88 39 -165t111 -121l342 568
q-76 45 -174 45q-77 0 -139.5 -28t-100.5 -74.5t-58 -104t-20 -120.5zM728 350q0 81 -31 150.5t-90 114.5l-341 -564q63 -30 142 -30q149 0 235 97.5t85 231.5z" />
    <glyph glyph-name="Ugrave" unicode="&#xd9;" horiz-adv-x="708" 
d="M580 700h32v-443q0 -66 -23 -118t-60.5 -83t-82.5 -47.5t-93 -16.5q-49 0 -94 16.5t-82 48t-59 83.5t-22 117v443h32v-443q0 -114 67.5 -174t157.5 -60t158.5 60t68.5 174v443zM385 759h-30l-85 119h39l76 -116v-3z" />
    <glyph glyph-name="Uacute" unicode="&#xda;" horiz-adv-x="708" 
d="M580 700h32v-443q0 -66 -23 -118t-60.5 -83t-82.5 -47.5t-93 -16.5q-49 0 -94 16.5t-82 48t-59 83.5t-22 117v443h32v-443q0 -114 67.5 -174t157.5 -60t158.5 60t68.5 174v443zM357 754h-30v3l76 116h39z" />
    <glyph glyph-name="Ucircumflex" unicode="&#xdb;" horiz-adv-x="708" 
d="M580 700h32v-443q0 -66 -23 -118t-60.5 -83t-82.5 -47.5t-93 -16.5q-49 0 -94 16.5t-82 48t-59 83.5t-22 117v443h32v-443q0 -114 67.5 -174t157.5 -60t158.5 60t68.5 174v443zM371 878l133 -125v-4h-33l-116 107l-114 -107h-34v4l133 125h31z" />
    <glyph glyph-name="Udieresis" unicode="&#xdc;" horiz-adv-x="708" 
d="M580 700h32v-443q0 -66 -23 -118t-60.5 -83t-82.5 -47.5t-93 -16.5q-49 0 -94 16.5t-82 48t-59 83.5t-22 117v443h32v-443q0 -114 67.5 -174t157.5 -60t158.5 60t68.5 174v443zM229 793q0 17 14 24.5t28 0t14 -24.5t-14 -24.5t-28 0t-14 24.5zM435 793q0 17 14 24.5t28 0
t14 -24.5t-14 -24.5t-28 0t-14 24.5z" />
    <glyph glyph-name="Yacute" unicode="&#xdd;" horiz-adv-x="650" 
d="M309 0v278l-275 422h38l253 -392l252 392h38l-274 -422v-278h-32zM328 756h-30v3l76 116h39z" />
    <glyph glyph-name="Thorn" unicode="&#xde;" horiz-adv-x="669" 
d="M135 699v-126h271q60 0 108 -25t72.5 -64.5t35.5 -87.5t0 -96t-36 -87.5t-72 -64.5t-108 -25h-271v-123h-31v699h31zM135 152h271q51 0 91.5 21.5t61 56t30.5 76.5t0 83.5t-30.5 76t-61 56t-91.5 21.5h-271v-391z" />
    <glyph glyph-name="germandbls" unicode="&#xdf;" horiz-adv-x="600" 
d="M85 0v517q0 96 56 145t145 49q93 0 149 -43t56 -133q0 -56 -30.5 -98t-82.5 -55q82 -17 126.5 -69t44.5 -136q0 -59 -24 -102t-63 -63.5t-87 -27t-96.5 1.5t-90.5 28v31q53 -29 112 -34.5t107.5 9.5t80.5 56t32 99q0 190 -238 190h-95v24h91q32 0 61.5 6t59.5 21
t47.5 45.5t17.5 73.5q-1 149 -178 149q-93 0 -131.5 -44t-42.5 -124v-516h-27z" />
    <glyph glyph-name="agrave" unicode="&#xe0;" 
d="M546 0h-30v63l6 71q-24 -68 -87 -104.5t-133 -35.5q-105 0 -177.5 69.5t-72.5 183.5q0 113 71.5 183t176.5 70q74 0 138.5 -38.5t83.5 -107.5l-6 80v60h30v-494zM299 471q-93 0 -155 -61t-62 -163t64 -163t157 -61q106 0 160 65.5t54 163.5q0 93 -57 156t-161 63z
M342 582h-30l-85 119h39l76 -116v-3z" />
    <glyph glyph-name="aacute" unicode="&#xe1;" 
d="M546 0h-30v63l6 71q-24 -68 -87 -104.5t-133 -35.5q-105 0 -177.5 69.5t-72.5 183.5q0 113 71.5 183t176.5 70q74 0 138.5 -38.5t83.5 -107.5l-6 80v60h30v-494zM299 471q-93 0 -155 -61t-62 -163t64 -163t157 -61q106 0 160 65.5t54 163.5q0 93 -57 156t-161 63z
M317 582h-30v3l76 116h39z" />
    <glyph glyph-name="acircumflex" unicode="&#xe2;" 
d="M546 0h-30v63l6 71q-24 -68 -87 -104.5t-133 -35.5q-105 0 -177.5 69.5t-72.5 183.5q0 113 71.5 183t176.5 70q74 0 138.5 -38.5t83.5 -107.5l-6 80v60h30v-494zM299 471q-93 0 -155 -61t-62 -163t64 -163t157 -61q106 0 160 65.5t54 163.5q0 93 -57 156t-161 63z
M330 698l133 -126v-4h-33l-117 108l-115 -108h-34v4l134 126h32z" />
    <glyph glyph-name="atilde" unicode="&#xe3;" 
d="M546 0h-30v63l6 71q-24 -68 -87 -104.5t-133 -35.5q-105 0 -177.5 69.5t-72.5 183.5q0 113 71.5 183t176.5 70q74 0 138.5 -38.5t83.5 -107.5l-6 80v60h30v-494zM299 471q-93 0 -155 -61t-62 -163t64 -163t157 -61q106 0 160 65.5t54 163.5q0 93 -57 156t-161 63z
M305 677l42 -23q53 -28 70 27l21 -8q-10 -40 -37 -52t-67 9l-42 23q-54 30 -70 -24l-21 8q10 38 37 49.5t67 -9.5z" />
    <glyph glyph-name="adieresis" unicode="&#xe4;" 
d="M546 0h-30v63l6 71q-24 -68 -87 -104.5t-133 -35.5q-105 0 -177.5 69.5t-72.5 183.5q0 113 71.5 183t176.5 70q74 0 138.5 -38.5t83.5 -107.5l-6 80v60h30v-494zM299 471q-93 0 -155 -61t-62 -163t64 -163t157 -61q106 0 160 65.5t54 163.5q0 93 -57 156t-161 63z
M192 667q0 17 14 24.5t28 0t14 -24.5t-14 -24.5t-28 0t-14 24.5zM398 667q0 17 14 24.5t28 0t14 -24.5t-14 -24.5t-28 0t-14 24.5z" />
    <glyph glyph-name="aring" unicode="&#xe5;" 
d="M546 0h-30v63l6 71q-24 -68 -87 -104.5t-133 -35.5q-105 0 -177.5 69.5t-72.5 183.5q0 113 71.5 183t176.5 70q74 0 138.5 -38.5t83.5 -107.5l-6 80v60h30v-494zM299 471q-93 0 -155 -61t-62 -163t64 -163t157 -61q106 0 160 65.5t54 163.5q0 93 -57 156t-161 63z
M385 648q0 24 -14.5 40.5t-34.5 21t-40.5 0.5t-35 -21t-14.5 -42q0 -23 14.5 -39.5t35 -20t40.5 0t34.5 20t14.5 40.5zM411 648q0 -34 -19.5 -57t-47.5 -28t-56.5 0t-48 28t-19.5 56q0 35 19.5 58.5t48 28t56.5 -1.5t47.5 -28.5t19.5 -55.5z" />
    <glyph glyph-name="ae" unicode="&#xe6;" horiz-adv-x="1050" 
d="M545 0h-28v63l4 69q-24 -68 -86.5 -103.5t-132.5 -34.5q-105 0 -177.5 69.5t-72.5 183.5q0 113 71.5 183t176.5 70q74 0 138.5 -39t83.5 -108l-5 81v60h28v-124q29 61 85 95.5t128 34.5q112 0 185.5 -67.5t60.5 -200.5h-459q8 -101 68.5 -154t145.5 -53q55 0 109 23
t82 62l23 -17q-34 -47 -92.5 -72t-121.5 -25q-70 0 -127 33t-87 94v-123zM299 471q-93 0 -155 -61t-62 -163t64 -163t157 -61q104 0 159.5 63t55.5 160q-2 101 -58.5 163t-160.5 62zM545 260h432q3 101 -56 156t-163 55q-89 0 -147.5 -56t-65.5 -155z" />
    <glyph glyph-name="ccedilla" unicode="&#xe7;" horiz-adv-x="530" 
d="M264 -74l-1 1l13 71q-96 9 -160 77.5t-64 171.5q0 112 72 181.5t181 69.5q104 0 180 -74l-20 -19q-61 64 -161 64q-94 0 -158 -59t-64 -163q0 -103 64 -162.5t159 -59.5q94 0 157 64l20 -20q-73 -73 -177 -73h-2l-10 -45q55 4 79.5 -25t12.5 -67q-18 -59 -93 -61
q-68 0 -95 49l19 16q28 -37 76 -39q53 0 66 42q9 30 -15 49.5t-79 10.5z" />
    <glyph glyph-name="egrave" unicode="&#xe8;" horiz-adv-x="589" 
d="M489 110l23 -17q-34 -47 -92.5 -72t-121.5 -25q-103 0 -174.5 67.5t-71.5 182.5q0 112 70 183t175 71q112 0 185.5 -67.5t60.5 -200.5h-461q8 -100 69.5 -153.5t146.5 -53.5q55 0 109 23t82 62zM82 260h434q3 101 -56 156t-163 55q-89 0 -148.5 -56t-66.5 -155zM336 582
h-30l-85 119h39l76 -116v-3z" />
    <glyph glyph-name="eacute" unicode="&#xe9;" horiz-adv-x="589" 
d="M489 110l23 -17q-34 -47 -92.5 -72t-121.5 -25q-103 0 -174.5 67.5t-71.5 182.5q0 112 70 183t175 71q112 0 185.5 -67.5t60.5 -200.5h-461q8 -100 69.5 -153.5t146.5 -53.5q55 0 109 23t82 62zM82 260h434q3 101 -56 156t-163 55q-89 0 -148.5 -56t-66.5 -155zM310 582
h-30v3l76 116h39z" />
    <glyph glyph-name="ecircumflex" unicode="&#xea;" horiz-adv-x="589" 
d="M489 110l23 -17q-34 -47 -92.5 -72t-121.5 -25q-103 0 -174.5 67.5t-71.5 182.5q0 112 70 183t175 71q112 0 185.5 -67.5t60.5 -200.5h-461q8 -100 69.5 -153.5t146.5 -53.5q55 0 109 23t82 62zM82 260h434q3 101 -56 156t-163 55q-89 0 -148.5 -56t-66.5 -155zM322 698
l130 -124v-3h-32l-114 105l-113 -105h-33v3l131 124h31z" />
    <glyph glyph-name="edieresis" unicode="&#xeb;" horiz-adv-x="589" 
d="M489 110l23 -17q-34 -47 -92.5 -72t-121.5 -25q-103 0 -174.5 67.5t-71.5 182.5q0 112 70 183t175 71q112 0 185.5 -67.5t60.5 -200.5h-461q8 -100 69.5 -153.5t146.5 -53.5q55 0 109 23t82 62zM82 260h434q3 101 -56 156t-163 55q-89 0 -148.5 -56t-66.5 -155zM184 658
q0 17 13.5 24t27 0t13.5 -24t-13.5 -23.5t-27 0t-13.5 23.5zM381 658q0 17 13.5 24t27 0t13.5 -24t-13.5 -23.5t-27 0t-13.5 23.5z" />
    <glyph glyph-name="igrave" unicode="&#xec;" horiz-adv-x="199" 
d="M85 501h29v-501h-29v501zM120 582h-27l-76 117h35l68 -114v-3z" />
    <glyph glyph-name="iacute" unicode="&#xed;" horiz-adv-x="199" 
d="M85 501h29v-501h-29v501zM106 582h-27v3l67 114h33z" />
    <glyph glyph-name="icircumflex" unicode="&#xee;" horiz-adv-x="199" 
d="M113 700l96 -130v-4h-30l-76 108l-81 -108h-27v4l96 130h22zM85 501h29v-501h-29v501z" />
    <glyph glyph-name="idieresis" unicode="&#xef;" horiz-adv-x="199" 
d="M18 684q0 16 12.5 22t25 0t12.5 -22t-12.5 -22t-25 0t-12.5 22zM142 684q0 16 12.5 22t25 0t12.5 -22t-12.5 -22t-25 0t-12.5 22zM85 501h29v-501h-29v501z" />
    <glyph glyph-name="eth" unicode="&#xf0;" horiz-adv-x="615" 
d="M338 646l43 66l22 -14l-43 -67q196 -134 200 -376q2 -117 -67.5 -190t-187.5 -73q-120 0 -186.5 73t-66.5 175q0 103 66.5 178t187.5 76q71 0 128.5 -33.5t84.5 -88.5q-45 146 -174 236l-42 -64l-21 14l41 64q-51 32 -104 50l12 27q56 -22 107 -53zM305 21
q106 0 165.5 65.5t59.5 154.5q0 90 -60 157t-165 67t-164 -66.5t-59 -157.5q0 -93 58.5 -156.5t164.5 -63.5z" />
    <glyph glyph-name="ntilde" unicode="&#xf1;" horiz-adv-x="601" 
d="M85 0v494h30l-1 -112q28 61 82 90.5t113 30.5q102 0 157.5 -56t55.5 -156v-291h-30v290q0 90 -48 137.5t-135 46.5q-81 -1 -137.5 -56.5t-56.5 -136.5v-281h-30zM297 692l42 -23q53 -28 70 27l21 -8q-10 -40 -37 -52t-67 9l-42 23q-54 30 -70 -24l-21 8q10 38 37 49.5
t67 -9.5z" />
    <glyph glyph-name="ograve" unicode="&#xf2;" horiz-adv-x="605" 
d="M52 246q0 117 73 186.5t178 69.5q104 0 177 -70.5t73 -185.5q0 -116 -73 -184t-178 -68t-177.5 68t-72.5 184zM523 246q0 103 -64 165t-157 62q-91 0 -155.5 -62.5t-64.5 -164.5t64 -162.5t156 -60.5t156.5 60.5t64.5 162.5zM331 582h-30l-85 119h39l76 -116v-3z" />
    <glyph glyph-name="oacute" unicode="&#xf3;" horiz-adv-x="605" 
d="M52 246q0 117 73 186.5t178 69.5q104 0 177 -70.5t73 -185.5q0 -116 -73 -184t-178 -68t-177.5 68t-72.5 184zM523 246q0 103 -64 165t-157 62q-91 0 -155.5 -62.5t-64.5 -164.5t64 -162.5t156 -60.5t156.5 60.5t64.5 162.5zM304 582h-30v3l76 116h39z" />
    <glyph glyph-name="ocircumflex" unicode="&#xf4;" horiz-adv-x="605" 
d="M52 246q0 117 73 186.5t178 69.5q104 0 177 -70.5t73 -185.5q0 -116 -73 -184t-178 -68t-177.5 68t-72.5 184zM523 246q0 103 -64 165t-157 62q-91 0 -155.5 -62.5t-64.5 -164.5t64 -162.5t156 -60.5t156.5 60.5t64.5 162.5zM319 698l123 -125v-4h-31l-108 107l-106 -107
h-32v4l124 125h30z" />
    <glyph glyph-name="otilde" unicode="&#xf5;" horiz-adv-x="605" 
d="M52 246q0 117 73 186.5t178 69.5q104 0 177 -70.5t73 -185.5q0 -116 -73 -184t-178 -68t-177.5 68t-72.5 184zM523 246q0 103 -64 165t-157 62q-91 0 -155.5 -62.5t-64.5 -164.5t64 -162.5t156 -60.5t156.5 60.5t64.5 162.5zM292 680l42 -23q53 -28 70 27l21 -8
q-10 -40 -37 -52t-67 9l-42 23q-54 30 -70 -24l-21 8q10 38 37 49.5t67 -9.5z" />
    <glyph glyph-name="odieresis" unicode="&#xf6;" horiz-adv-x="605" 
d="M52 246q0 117 73 186.5t178 69.5q104 0 177 -70.5t73 -185.5q0 -116 -73 -184t-178 -68t-177.5 68t-72.5 184zM523 246q0 103 -64 165t-157 62q-91 0 -155.5 -62.5t-64.5 -164.5t64 -162.5t156 -60.5t156.5 60.5t64.5 162.5zM191 672q0 16 12.5 22t25 0t12.5 -22
t-12.5 -22t-25 0t-12.5 22zM374 672q0 16 12.5 22t25 0t12.5 -22t-12.5 -22t-25 0t-12.5 22z" />
    <glyph glyph-name="divide" unicode="&#xf7;" horiz-adv-x="532" 
d="M235 478q0 18 15 26t30 0t15 -26t-15 -26t-30 0t-15 26zM80 353v-31h372v31h-372zM235 190q0 18 15 26t30 0t15 -26t-15 -26t-30 0t-15 26z" />
    <glyph glyph-name="oslash" unicode="&#xf8;" horiz-adv-x="604" 
d="M111 -51l51 84q-109 69 -109 213q0 117 72.5 187t177.5 70q67 0 123 -29l37 62h35l-47 -79q47 -33 74 -88t27 -123q0 -116 -72.5 -184t-177.5 -68q-67 0 -115 24l-42 -69h-34zM177 58l232 390q-52 25 -107 25q-91 0 -155.5 -62.5t-64.5 -164.5q0 -126 95 -188zM435 433
l-231 -387q41 -20 98 -20q93 0 157 59t64 161q0 122 -88 187z" />
    <glyph glyph-name="ugrave" unicode="&#xf9;" horiz-adv-x="601" 
d="M516 494v-494h-30l1 112q-28 -61 -82 -90.5t-113 -30.5q-102 0 -157.5 56t-55.5 156v291h30v-290q0 -90 48 -137.5t135 -46.5q81 1 137.5 56.5t56.5 136.5v281h30zM335 582h-30l-85 119h39l76 -116v-3z" />
    <glyph glyph-name="uacute" unicode="&#xfa;" horiz-adv-x="601" 
d="M516 494v-494h-30l1 112q-28 -61 -82 -90.5t-113 -30.5q-102 0 -157.5 56t-55.5 156v291h30v-290q0 -90 48 -137.5t135 -46.5q81 1 137.5 56.5t56.5 136.5v281h30zM298 582h-30v3l76 116h39z" />
    <glyph glyph-name="ucircumflex" unicode="&#xfb;" horiz-adv-x="601" 
d="M516 494v-494h-30l1 112q-28 -61 -82 -90.5t-113 -30.5q-102 0 -157.5 56t-55.5 156v291h30v-290q0 -90 48 -137.5t135 -46.5q81 1 137.5 56.5t56.5 136.5v281h30zM315 704l132 -126v-4h-33l-116 108l-114 -108h-33v4l132 126h32z" />
    <glyph glyph-name="udieresis" unicode="&#xfc;" horiz-adv-x="601" 
d="M516 494v-494h-30l1 112q-28 -61 -82 -90.5t-113 -30.5q-102 0 -157.5 56t-55.5 156v291h30v-290q0 -90 48 -137.5t135 -46.5q81 1 137.5 56.5t56.5 136.5v281h30zM183 673q0 25 26 25t26 -25q0 -17 -13 -23.5t-26 0t-13 23.5zM375 673q0 25 26 25t26 -25
q0 -17 -13 -23.5t-26 0t-13 23.5z" />
    <glyph glyph-name="yacute" unicode="&#xfd;" horiz-adv-x="529" 
d="M454 494h34l-315 -736h-33l105 248l-200 488h33l184 -457zM257 581h-30v3l76 116h39z" />
    <glyph glyph-name="thorn" unicode="&#xfe;" horiz-adv-x="632" 
d="M114 -206h-29v905h29v-334q31 62 90.5 98.5t137.5 36.5q103 -5 170 -72t67 -181q0 -119 -71.5 -187t-179.5 -68q-70 0 -126 34.5t-88 99.5v-332zM331 21q95 0 156 58.5t61 167.5t-60.5 166.5t-156.5 57.5q-93 0 -154.5 -63t-61.5 -162q0 -98 62 -161.5t154 -63.5z" />
    <glyph glyph-name="ydieresis" unicode="&#xff;" horiz-adv-x="529" 
d="M454 494h34l-315 -736h-33l105 248l-200 488h33l184 -457zM139 668q0 15 13 21.5t26 0t13 -21.5t-13 -21.5t-26 0t-13 21.5zM330 668q0 15 13 21.5t26 0t13 -21.5t-13 -21.5t-26 0t-13 21.5z" />
    <glyph glyph-name="Amacron" unicode="&#x100;" horiz-adv-x="730" 
d="M222 769v29h273v-29h-273zM32 0l314 700h38l314 -700h-37l-81 182h-431l-80 -182h-37zM162 214h404l-202 458z" />
    <glyph glyph-name="amacron" unicode="&#x101;" 
d="M176 644v28h279v-28h-279zM546 0h-30v63l6 71q-24 -68 -87 -104.5t-133 -35.5q-105 0 -177.5 69.5t-72.5 183.5q0 113 71.5 183t176.5 70q74 0 138.5 -38.5t83.5 -107.5l-6 80v60h30v-494zM299 471q-93 0 -155 -61t-62 -163t64 -163t157 -61q106 0 160 65.5t54 163.5
q0 93 -57 156t-161 63z" />
    <glyph glyph-name="Abreve" unicode="&#x102;" horiz-adv-x="730" 
d="M32 0l314 700h36l316 -700h-36l-83 184h-430l-82 -184h-35zM160 214h407l-203 458zM479 860q-1 -48 -34 -74.5t-80 -26.5t-82 26.5t-37 74.5h25q0 -37 27.5 -56.5t66.5 -19.5q36 0 62 20.5t27 55.5h25z" />
    <glyph glyph-name="abreve" unicode="&#x103;" 
d="M546 0h-30v63l6 71q-24 -68 -87 -104.5t-133 -35.5q-105 0 -177.5 69.5t-72.5 183.5q0 113 71.5 183t176.5 70q74 0 138.5 -38.5t83.5 -107.5l-6 80v60h30v-494zM299 471q-93 0 -155 -61t-62 -163t64 -163t157 -61q106 0 160 65.5t54 163.5q0 93 -57 156t-161 63z
M432 687q-1 -47 -34.5 -73.5t-79.5 -27.5q-47 -1 -82 26t-37 75h25q0 -37 28 -57t66 -19q35 1 61.5 21t27.5 55h25z" />
    <glyph glyph-name="Aogonek" unicode="&#x104;" horiz-adv-x="727" 
d="M384 700l311 -695q-41 0 -60 -2q-50 -4 -69.5 -35.5t-0.5 -60.5t66 -28q26 1 53 15.5t42 41.5l22 -16q-36 -60 -113 -66q-74 -6 -99 44q-21 43 9 85q34 47 103 48l-67 151h-433l-80 -182h-36l314 700h38zM161 214h406l-203 458z" />
    <glyph glyph-name="aogonek" unicode="&#x105;" 
d="M546 -23q-62 5 -87.5 -17.5t-21.5 -54.5q3 -21 21.5 -34.5t49.5 -12.5q58 2 87 53l24 -10q-15 -33 -43.5 -51t-63.5 -20q-49 -1 -75.5 19.5t-29.5 50.5q-5 44 25 71.5t84 29.5v62l6 71q-24 -68 -87 -104.5t-133 -35.5q-105 0 -177.5 69.5t-72.5 183.5q0 113 71.5 183
t176.5 70q74 0 138.5 -38.5t83.5 -107.5l-6 80v60h30v-517zM299 471q-93 0 -155 -61t-62 -163t64 -163t157 -61q106 0 160 65.5t54 163.5q0 93 -57 156t-161 63z" />
    <glyph glyph-name="Cacute" unicode="&#x106;" horiz-adv-x="719" 
d="M385 781v3l71 112h36l-81 -115h-26zM644 118l23 -20q-103 -105 -252 -105q-166 0 -261 101t-96 251q-2 96 37 177t122.5 133t197.5 52q149 0 252 -104l-22 -21q-94 94 -230 94q-154 0 -240 -94t-85 -236q2 -138 88 -230t237 -92q133 0 229 94z" />
    <glyph glyph-name="cacute" unicode="&#x107;" horiz-adv-x="530" 
d="M276 598v3l65 100h34l-73 -103h-26zM462 89l20 -20q-73 -73 -177 -73q-106 0 -179.5 70t-73.5 181q0 112 72 181.5t181 69.5q104 0 180 -74l-20 -19q-61 64 -161 64q-94 0 -158 -59t-64 -163q0 -103 64 -162.5t159 -59.5q94 0 157 64z" />
    <glyph glyph-name="Ccircumflex" unicode="&#x108;" horiz-adv-x="720" 
d="M644 119l23 -20q-103 -105 -252 -105q-166 0 -261 101t-96 251q-2 96 37 177t122.5 133t197.5 52q149 0 252 -104l-22 -21q-94 94 -230 94q-154 0 -240 -94t-85 -236q2 -138 88 -230t237 -92q133 0 229 94zM422 914l139 -131v-4h-35l-121 112l-120 -112h-35v4l139 131h33
z" />
    <glyph glyph-name="ccircumflex" unicode="&#x109;" horiz-adv-x="530" 
d="M163 590l125 116h30l124 -116v-6h-30l-109 102l-113 -102h-27v6zM462 89l20 -20q-73 -73 -177 -73q-106 0 -179.5 70t-73.5 181q0 112 72 181.5t181 69.5q104 0 180 -74l-20 -19q-61 64 -161 64q-94 0 -158 -59t-64 -163q0 -103 64 -162.5t159 -59.5q94 0 157 64z" />
    <glyph glyph-name="Cdotaccent" unicode="&#x10a;" horiz-adv-x="720" 
d="M376 823q0 20 16 28.5t32.5 0t16.5 -28.5t-16.5 -28t-32.5 0t-16 28zM644 119l23 -20q-103 -105 -252 -105q-166 0 -261 101t-96 251q-2 96 37 177t122.5 133t197.5 52q149 0 252 -104l-22 -21q-94 94 -230 94q-154 0 -240 -94t-85 -236q2 -138 88 -230t237 -92
q133 0 229 94z" />
    <glyph glyph-name="cdotaccent" unicode="&#x10b;" horiz-adv-x="530" 
d="M272 653q0 19 14.5 26.5t29 0t14.5 -26.5q0 -17 -14.5 -24.5t-29 0t-14.5 24.5zM462 89l20 -20q-73 -73 -177 -73q-106 0 -179.5 70t-73.5 181q0 112 72 181.5t181 69.5q104 0 180 -74l-20 -19q-61 64 -161 64q-94 0 -158 -59t-64 -163q0 -103 64 -162.5t159 -59.5
q94 0 157 64z" />
    <glyph glyph-name="Ccaron" unicode="&#x10c;" horiz-adv-x="720" 
d="M644 119l23 -20q-103 -105 -252 -105q-166 0 -261 101t-96 251q-2 96 37 177t122.5 133t197.5 52q149 0 252 -104l-22 -21q-94 94 -230 94q-154 0 -240 -94t-85 -236q2 -138 88 -230t237 -92q133 0 229 94zM391 776l-139 131v4h35l121 -112l120 112h35v-4l-139 -131h-33z
" />
    <glyph glyph-name="ccaron" unicode="&#x10d;" horiz-adv-x="530" 
d="M462 89l20 -20q-73 -73 -177 -73q-106 0 -179.5 70t-73.5 181q0 112 72 181.5t181 69.5q104 0 180 -74l-20 -19q-61 64 -161 64q-94 0 -158 -59t-64 -163q0 -103 64 -162.5t159 -59.5q94 0 157 64zM289 579l-126 119v4h32l110 -102l108 102h32v-4l-126 -119h-30z" />
    <glyph glyph-name="Dcaron" unicode="&#x10e;" horiz-adv-x="746" 
d="M104 0v700h227q168 0 260.5 -99t96.5 -243q2 -70 -20 -133.5t-64.5 -114t-113 -80.5t-159.5 -30h-227zM136 31h195q80 0 143.5 27.5t103 73.5t59.5 104t19 122q-2 83 -37 152t-110 114t-178 45h-195v-638zM300 768l-139 131v4h35l121 -112l120 112h35v-4l-139 -131h-33z
" />
    <glyph glyph-name="dcaron" unicode="&#x10f;" 
d="M598 565l38 138h31l-45 -138h-24zM546 0h-30v63l6 71q-24 -68 -87 -104.5t-133 -35.5q-105 0 -177.5 69.5t-72.5 183.5q0 113 71.5 183t176.5 70q74 0 138.5 -38.5t83.5 -107.5l-6 80v265h30v-699zM299 471q-93 0 -155 -61t-62 -163t64 -163t157 -61q106 0 160 65.5
t54 163.5q0 93 -57 156t-161 63z" />
    <glyph glyph-name="Dcroat" unicode="&#x110;" horiz-adv-x="752" 
d="M35 352v28h75v320h227q168 0 260.5 -99t96.5 -243q2 -70 -20 -133.5t-64.5 -114t-113 -80.5t-159.5 -30h-227v352h-75zM142 31h195q80 0 143.5 27.5t103 73.5t59.5 104t19 122q-2 83 -37 152t-110 114t-178 45h-195v-289h155v-28h-155v-321z" />
    <glyph glyph-name="dcroat" unicode="&#x111;" 
d="M299 471q-93 0 -155 -61t-62 -163t64 -163t157 -61q106 0 160 65.5t54 163.5q0 93 -57 156t-161 63zM413 597v26h103v76h30v-76h72v-26h-72v-597h-30v63l6 71q-24 -68 -87 -104.5t-133 -35.5q-105 0 -177.5 69.5t-72.5 183.5q0 113 71.5 183t176.5 70q74 0 138.5 -38.5
t83.5 -107.5l-6 80v163h-103z" />
    <glyph glyph-name="Emacron" unicode="&#x112;" horiz-adv-x="652" 
d="M482 817v-28h-272v28h272zM136 31h456v-31h-488v700h473v-31h-441v-300h420v-31h-420v-307z" />
    <glyph glyph-name="emacron" unicode="&#x113;" horiz-adv-x="589" 
d="M172 648v26h275v-26h-275zM489 110l23 -17q-34 -47 -92.5 -72t-121.5 -25q-103 0 -174.5 67.5t-71.5 182.5q0 112 70 183t175 71q112 0 185.5 -67.5t60.5 -200.5h-461q8 -100 69.5 -153.5t146.5 -53.5q55 0 109 23t82 62zM82 260h434q3 101 -56 156t-163 55
q-89 0 -148.5 -56t-66.5 -155z" />
    <glyph glyph-name="Ebreve" unicode="&#x114;" horiz-adv-x="652" 
d="M136 31h456v-31h-488v700h473v-31h-441v-300h420v-31h-420v-307zM471 879q-1 -47 -34.5 -73.5t-79.5 -27.5q-47 -1 -82 26t-37 75h25q0 -37 28 -57t66 -19q35 1 61.5 21t27.5 55h25z" />
    <glyph glyph-name="ebreve" unicode="&#x115;" horiz-adv-x="589" 
d="M489 110l23 -17q-34 -47 -92.5 -72t-121.5 -25q-103 0 -174.5 67.5t-71.5 182.5q0 112 70 183t175 71q112 0 185.5 -67.5t60.5 -200.5h-461q8 -100 69.5 -153.5t146.5 -53.5q55 0 109 23t82 62zM82 260h434q3 101 -56 156t-163 55q-89 0 -148.5 -56t-66.5 -155zM420 697
q-1 -47 -34.5 -73.5t-79.5 -27.5q-47 -1 -82 26t-37 75h25q0 -37 28 -57t66 -19q35 1 61.5 21t27.5 55h25z" />
    <glyph glyph-name="Edotaccent" unicode="&#x116;" horiz-adv-x="652" 
d="M389 811q0 -20 -15.5 -28t-31 0t-15.5 28t15.5 28.5t31 0t15.5 -28.5zM136 31h456v-31h-488v700h473v-31h-441v-300h420v-31h-420v-307z" />
    <glyph glyph-name="edotaccent" unicode="&#x117;" horiz-adv-x="589" 
d="M282 671q0 21 16 29.5t31.5 0t15.5 -29.5q0 -20 -15.5 -28.5t-31.5 0t-16 28.5zM489 110l23 -17q-34 -47 -92.5 -72t-121.5 -25q-103 0 -174.5 67.5t-71.5 182.5q0 112 70 183t175 71q112 0 185.5 -67.5t60.5 -200.5h-461q8 -100 69.5 -153.5t146.5 -53.5q55 0 109 23
t82 62zM82 260h434q3 101 -56 156t-163 55q-89 0 -148.5 -56t-66.5 -155z" />
    <glyph glyph-name="Eogonek" unicode="&#x118;" horiz-adv-x="652" 
d="M136 31h456v-31q-28 -2 -59 -12.5t-55.5 -35t-15.5 -57.5q11 -40 57 -40q67 0 93 55l25 -10q-16 -35 -47.5 -54.5t-71.5 -19.5q-69 0 -86 58q-12 39 10.5 72t65.5 44h-404v700h473v-31h-441v-300h420v-31h-420v-307z" />
    <glyph glyph-name="eogonek" unicode="&#x119;" horiz-adv-x="589" 
d="M489 106l23 -17q-41 -58 -123 -83q-34 -32 -16 -68t69 -33q25 2 50 16t38 39l24 -11q-14 -31 -45.5 -52t-64.5 -23q-57 -6 -87.5 33t0.5 91q-27 -6 -59 -6q-103 0 -174.5 67.5t-71.5 182.5q0 112 70 183t175 71q112 0 185.5 -67.5t60.5 -200.5h-461q8 -100 69.5 -153.5
t146.5 -53.5q55 0 109 23t82 62zM82 256h434q3 101 -56 156t-163 55q-89 0 -148.5 -56t-66.5 -155z" />
    <glyph glyph-name="Ecaron" unicode="&#x11a;" horiz-adv-x="652" 
d="M136 31h456v-31h-488v700h473v-31h-441v-300h420v-31h-420v-307zM340 767l-135 127v4h34l117 -108l117 108h34v-4l-135 -127h-32z" />
    <glyph glyph-name="ecaron" unicode="&#x11b;" horiz-adv-x="589" 
d="M489 110l23 -17q-34 -47 -92.5 -72t-121.5 -25q-103 0 -174.5 67.5t-71.5 182.5q0 112 70 183t175 71q112 0 185.5 -67.5t60.5 -200.5h-461q8 -100 69.5 -153.5t146.5 -53.5q55 0 109 23t82 62zM82 260h434q3 101 -56 156t-163 55q-89 0 -148.5 -56t-66.5 -155zM293 577
l-129 121v4h33l112 -104l112 104h32v-4l-129 -121h-31z" />
    <glyph glyph-name="Gcircumflex" unicode="&#x11c;" horiz-adv-x="746" 
d="M667 604l-21 -23q-96 96 -228 96q-157 0 -242.5 -94.5t-84.5 -231.5q0 -139 87 -233t240 -94q61 0 124.5 25t103.5 68v208h-262v31h294v-253q-107 -110 -260 -110q-112 0 -195 49.5t-123.5 129.5t-40.5 178q-1 164 100 261t259 97q144 0 249 -104zM426 910l138 -130v-4
h-35l-120 111l-119 -111h-34v4l137 130h33z" />
    <glyph glyph-name="gcircumflex" unicode="&#x11d;" horiz-adv-x="607" 
d="M165 585l131 125h31l131 -125v-6h-31l-116 104l-114 -104h-32v6zM67 -104h29q1 -75 63 -118t146 -43q89 0 152 36t63 109q0 53 -36 87.5t-81.5 46.5t-97.5 12q-113 0 -182.5 63t-69.5 176q0 112 76.5 175.5t175.5 63.5q93 0 157 -46l50 59l22 -16l-51 -60
q22 -24 34.5 -40t25 -53t12.5 -83q0 -72 -44 -138.5t-124 -82.5q70 -12 116.5 -53.5t46.5 -110.5q0 -81 -71 -127.5t-174 -46.5q-97 0 -167 50.5t-71 139.5zM83 265q0 -104 61.5 -157t160.5 -53q98 0 159 63t61 147q0 54 -19 95.5t-51 66t-70 36.5t-80 12q-88 0 -155 -54
t-67 -156z" />
    <glyph glyph-name="Gbreve" unicode="&#x11e;" horiz-adv-x="746" 
d="M667 604l-21 -23q-96 96 -228 96q-157 0 -242.5 -94.5t-84.5 -231.5q0 -139 87 -233t240 -94q61 0 124.5 25t103.5 68v208h-262v31h294v-253q-107 -110 -260 -110q-112 0 -195 49.5t-123.5 129.5t-40.5 178q-1 164 100 261t259 97q144 0 249 -104zM530 884
q-1 -47 -34.5 -73.5t-79.5 -27.5q-47 -1 -82 26t-37 75h25q0 -37 28 -57t66 -19q35 1 61.5 21t27.5 55h25z" />
    <glyph glyph-name="gbreve" unicode="&#x11f;" horiz-adv-x="607" 
d="M427 704q-1 -47 -34.5 -73.5t-79.5 -27.5q-47 -1 -82 26t-37 75h25q0 -37 28 -57t66 -19q35 1 61.5 21t27.5 55h25zM67 -104h29q1 -75 63 -118t146 -43q89 0 152 36t63 109q0 53 -36 87.5t-81.5 46.5t-97.5 12q-113 0 -182.5 63t-69.5 176q0 112 76.5 175.5t175.5 63.5
q93 0 157 -46l50 59l22 -16l-51 -60q22 -24 34.5 -40t25 -53t12.5 -83q0 -72 -44 -138.5t-124 -82.5q70 -12 116.5 -53.5t46.5 -110.5q0 -81 -71 -127.5t-174 -46.5q-97 0 -167 50.5t-71 139.5zM83 265q0 -104 61.5 -157t160.5 -53q98 0 159 63t61 147q0 54 -19 95.5t-51 66
t-70 36.5t-80 12q-88 0 -155 -54t-67 -156z" />
    <glyph glyph-name="Gdotaccent" unicode="&#x120;" horiz-adv-x="745" 
d="M382 810q0 19 16 26.5t32.5 0t16.5 -26.5t-16.5 -27t-32.5 0t-16 27zM667 602l-21 -23q-96 96 -228 96q-157 0 -242.5 -94.5t-84.5 -231.5q0 -139 87 -233t240 -94q61 0 124.5 25t103.5 68v208h-262v31h294v-253q-107 -110 -260 -110q-112 0 -195 49.5t-123.5 129.5
t-40.5 178q-1 164 100 261t259 97q144 0 249 -104z" />
    <glyph glyph-name="gdotaccent" unicode="&#x121;" horiz-adv-x="607" 
d="M289 665q0 19 16 26.5t32 0t16 -26.5t-16 -26.5t-32 0t-16 26.5zM67 -104h29q1 -75 63 -118t146 -43q89 0 152 36t63 109q0 53 -36 87.5t-81.5 46.5t-97.5 12q-113 0 -182.5 63t-69.5 176q0 112 76.5 175.5t175.5 63.5q93 0 157 -46l50 59l22 -16l-51 -60
q22 -24 34.5 -40t25 -53t12.5 -83q0 -72 -44 -138.5t-124 -82.5q70 -12 116.5 -53.5t46.5 -110.5q0 -81 -71 -127.5t-174 -46.5q-97 0 -167 50.5t-71 139.5zM83 265q0 -104 61.5 -157t160.5 -53q98 0 159 63t61 147q0 54 -19 95.5t-51 66t-70 36.5t-80 12q-88 0 -155 -54
t-67 -156z" />
    <glyph glyph-name="Gcommaaccent" unicode="&#x122;" horiz-adv-x="746" 
d="M667 604l-21 -23q-96 96 -228 96q-157 0 -242.5 -94.5t-84.5 -231.5q0 -139 87 -233t240 -94q61 0 124.5 25t103.5 68v208h-262v31h294v-253q-107 -110 -260 -110q-112 0 -195 49.5t-123.5 129.5t-40.5 178q-1 164 100 261t259 97q144 0 249 -104zM366 -216l30 74
q-17 5 -17 24q0 18 13.5 25t27.5 0t14 -25q0 -6 -8 -26l-31 -72h-29z" />
    <glyph glyph-name="gcommaaccent" unicode="&#x123;" horiz-adv-x="607" 
d="M359 707l-30 -74q17 -5 17 -24q0 -18 -14 -25t-27.5 0t-13.5 25q0 6 8 26l31 72h29zM67 -104h29q1 -75 63 -118t146 -43q89 0 152 36t63 109q0 53 -36 87.5t-81.5 46.5t-97.5 12q-113 0 -182.5 63t-69.5 176q0 112 76.5 175.5t175.5 63.5q93 0 157 -46l50 59l22 -16
l-51 -60q22 -24 34.5 -40t25 -53t12.5 -83q0 -72 -44 -138.5t-124 -82.5q70 -12 116.5 -53.5t46.5 -110.5q0 -81 -71 -127.5t-174 -46.5q-97 0 -167 50.5t-71 139.5zM83 265q0 -104 61.5 -157t160.5 -53q98 0 159 63t61 147q0 54 -19 95.5t-51 66t-70 36.5t-80 12
q-88 0 -155 -54t-67 -156z" />
    <glyph glyph-name="Hcircumflex" unicode="&#x124;" horiz-adv-x="749" 
d="M645 0h-32v327h-477v-327h-32v700h32v-342h477v342h32v-700zM396 902l138 -130v-4h-35l-120 111l-119 -111h-34v4l137 130h33z" />
    <glyph glyph-name="hcircumflex" unicode="&#x125;" horiz-adv-x="586" 
d="M300 894l132 -124v-4h-33l-115 106l-114 -106h-33v4l132 124h31zM85 494v206h30v-206l-4 -123q53 127 198 129q198 0 198 -209v-291h-30v290q0 93 -41 136.5t-127 45.5q-78 2 -136 -53.5t-58 -137.5v-281h-30v494z" />
    <glyph glyph-name="Hbar" unicode="&#x126;" horiz-adv-x="761" 
d="M36 537v28h74v135h32v-135h477v135h32v-135h76v-28h-76v-537h-32v327h-477v-327h-32v537h-74zM142 358h477v179h-477v-179z" />
    <glyph glyph-name="hbar" unicode="&#x127;" horiz-adv-x="586" 
d="M17 590v24h68v86h30v-86h130v-24h-130v-96l-4 -123q53 127 198 129q198 0 198 -209v-291h-30v290q0 93 -41 136.5t-127 45.5q-78 2 -136 -53.5t-58 -137.5v-281h-30v590h-68z" />
    <glyph glyph-name="Itilde" unicode="&#x128;" horiz-adv-x="240" 
d="M136 0h-32v700h32v-700zM108 828l42 -23q53 -28 70 27l21 -8q-10 -40 -37 -52t-67 9l-42 23q-54 30 -70 -24l-21 8q10 38 37 49.5t67 -9.5z" />
    <glyph glyph-name="itilde" unicode="&#x129;" horiz-adv-x="199" 
d="M85 501h29v-501h-29v501zM90 646l36 -22q44 -28 59 25l17 -7q-8 -38 -31 -50t-56 8l-36 23q-46 29 -59 -24l-18 8q8 37 31 48t57 -9z" />
    <glyph glyph-name="Imacron" unicode="&#x12a;" horiz-adv-x="240" 
d="M136 0h-32v700h32v-700zM14 767v29h210v-29h-210z" />
    <glyph glyph-name="imacron" unicode="&#x12b;" horiz-adv-x="200" 
d="M115 494h-30v-494h30v494zM8 657v28h186v-28h-186z" />
    <glyph glyph-name="Ibreve" unicode="&#x12c;" horiz-adv-x="240" 
d="M136 0h-32v700h32v-700zM236 860q-1 -47 -34.5 -73.5t-79.5 -27.5q-47 -1 -82 26t-37 75h25q0 -37 28 -57t66 -19q35 1 61.5 21t27.5 55h25z" />
    <glyph glyph-name="ibreve" unicode="&#x12d;" horiz-adv-x="200" 
d="M115 494h-30v-494h30v494zM12 690h22q1 -64 67 -66q66 2 67 66h22q-1 -48 -26 -71.5t-63 -24.5q-38 1 -63 24.5t-26 71.5z" />
    <glyph glyph-name="Iogonek" unicode="&#x12e;" horiz-adv-x="242" 
d="M138 0h-10q-50 -2 -65.5 -31.5t-4.5 -52.5q19 -43 68 -40q55 2 81 49l23 -9q-28 -64 -101 -67q-74 -4 -96 54q-15 40 5 74.5t68 43.5v679h32v-700z" />
    <glyph glyph-name="iogonek" unicode="&#x12f;" horiz-adv-x="204" 
d="M79 661q0 25 26.5 25t26.5 -25q0 -17 -13 -24t-26.5 0t-13.5 24zM119 494h-30v-473q-42 -7 -62 -35.5t-15 -58.5t32.5 -53t68.5 -21q52 3 85 46l-22 13q-27 -31 -67 -33q-39 -2 -59 26t-7 58.5t55 36.5h21v494z" />
    <glyph glyph-name="Idotaccent" unicode="&#x130;" horiz-adv-x="240" 
d="M136 0h-32v700h32v-700zM89 781q0 19 15.5 27t31.5 0t16 -27q0 -20 -16 -28t-31.5 0t-15.5 28z" />
    <glyph glyph-name="dotlessi" unicode="&#x131;" horiz-adv-x="200" 
d="M85 494h30v-494h-30v494z" />
    <glyph glyph-name="IJ" unicode="&#x132;" horiz-adv-x="904" 
d="M136 0h-32v700h32v-700zM493 669v31h315v-445q0 -123 -76 -194t-193 -71q-116 0 -192 76t-76 191h29q0 -101 70 -168.5t169 -67.5q103 0 170 61.5t67 172.5v414h-283z" />
    <glyph glyph-name="ij" unicode="&#x133;" horiz-adv-x="400" 
d="M75 661q0 25 26.5 25t26.5 -25q0 -17 -13 -24t-26.5 0t-13.5 24zM115 494h-30v-494h30v494zM315 495h-30v-576q0 -31 -2.5 -51t-11.5 -41t-28 -31t-50 -10q-43 0 -79 22l-10 -27q46 -24 87 -24q40 0 66 12.5t38.5 37t16.5 50.5t3 62v576zM273 667q0 25 26.5 25t26.5 -25
q0 -17 -13 -24t-26.5 0t-13.5 24z" />
    <glyph glyph-name="Jcircumflex" unicode="&#x134;" horiz-adv-x="664" 
d="M253 669v31h315v-445q0 -123 -76 -194t-193 -71q-116 0 -192 76t-76 191h29q0 -101 70 -168.5t169 -67.5q103 0 170 61.5t67 172.5v414h-283zM403 904l139 -131v-4h-35l-121 112l-120 -112h-35v4l139 131h33z" />
    <glyph glyph-name="jcircumflex" unicode="&#x135;" horiz-adv-x="200" 
d="M115 495h-30v-576q0 -31 -2.5 -51t-11.5 -41t-28 -31t-50 -10q-43 0 -79 22l-10 -27q46 -24 87 -24q40 0 66 12.5t38.5 37t16.5 50.5t3 62v576zM115 698l123 -131v-4h-31l-107 112l-106 -112h-31v4l123 131h29z" />
    <glyph glyph-name="Kcommaaccent" unicode="&#x136;" horiz-adv-x="570" 
d="M134 1h-32v699h32v-325l358 325h40v-5l-365 -329l398 -363v-3h-44l-387 354v-353zM275 -216l30 74q-17 5 -17 24q0 18 14 25t27.5 0t13.5 -25q0 -6 -8 -26l-31 -72h-29z" />
    <glyph glyph-name="kcommaaccent" unicode="&#x137;" horiz-adv-x="451" 
d="M85 700h30v-426l249 220h46v-1l-268 -232l297 -259v-2h-40l-284 247v-247h-30v700zM210 -209l29 70q-16 5 -16 23q0 17 13 24t26 0t13 -24q0 -8 -7 -25l-30 -68h-28z" />
    <glyph glyph-name="kgreenlandic" unicode="&#x138;" horiz-adv-x="451" 
d="M85 495h30v-221l250 220h45v-1l-263 -232l292 -259v-2h-41l-283 247v-247h-30v495z" />
    <glyph glyph-name="Lacute" unicode="&#x139;" horiz-adv-x="559" 
d="M104 700h32v-669h405v-31h-437v700zM201 771h-30v3l76 116h39z" />
    <glyph glyph-name="lacute" unicode="&#x13a;" horiz-adv-x="216" 
d="M93 700h30v-700h-30v700zM118 752h-27v3l67 118h33z" />
    <glyph glyph-name="Lcommaaccent" unicode="&#x13b;" horiz-adv-x="559" 
d="M104 700h32v-669h405v-31h-437v700zM286 -222l30 74q-17 5 -17 24q0 18 13.5 25t27.5 0t14 -25q0 -6 -8 -26l-31 -72h-29z" />
    <glyph glyph-name="lcommaaccent" unicode="&#x13c;" horiz-adv-x="216" 
d="M93 700h30v-700h-30v700zM67 -216l30 74q-17 5 -17 24q0 17 14 24.5t27.5 0.5t13.5 -25q0 -6 -8 -26l-31 -72h-29z" />
    <glyph glyph-name="Lcaron" unicode="&#x13d;" horiz-adv-x="560" 
d="M104 700h32v-669h405v-31h-437v700zM423 552h-29l44 148h35z" />
    <glyph glyph-name="lcaron" unicode="&#x13e;" horiz-adv-x="209" 
d="M176 558l35 143h32l-42 -143h-25zM93 700h31v-700h-31v700z" />
    <glyph glyph-name="Ldot" unicode="&#x13f;" horiz-adv-x="559" 
d="M104 700h32v-669h405v-31h-437v700zM325 369q0 17 14.5 24.5t28.5 0t14 -24.5t-14 -24.5t-28.5 0t-14.5 24.5z" />
    <glyph glyph-name="ldot" unicode="&#x140;" horiz-adv-x="267" 
d="M93 700h30v-700h-30v700zM213 317q0 17 14.5 24.5t28.5 0t14 -24.5t-14 -24.5t-28.5 0t-14.5 24.5z" />
    <glyph glyph-name="Lslash" unicode="&#x141;" horiz-adv-x="563" 
d="M110 0v318l-68 -25v28l68 27v352h30v-341l118 49v-31l-118 -47v-302h407v-28h-437z" />
    <glyph glyph-name="lslash" unicode="&#x142;" horiz-adv-x="241" 
d="M105 700h31v-343l83 33v-40l-83 -32v-318h-31v309l-74 -27v37l74 29v352z" />
    <glyph glyph-name="Nacute" unicode="&#x143;" horiz-adv-x="740" 
d="M104 0v700h3l500 -616l-3 162v454h32v-700l-503 619l3 -165v-454h-32zM373 767h-30v3l76 116h39z" />
    <glyph glyph-name="nacute" unicode="&#x144;" horiz-adv-x="601" 
d="M85 0v494h30l-1 -112q28 61 82 90.5t113 30.5q102 0 157.5 -56t55.5 -156v-291h-30v290q0 90 -48 137.5t-135 46.5q-81 -1 -137.5 -56.5t-56.5 -136.5v-281h-30zM307 595h-27v3l67 103h35z" />
    <glyph glyph-name="Ncommaaccent" unicode="&#x145;" horiz-adv-x="740" 
d="M104 0v700h3l500 -616l-3 162v454h32v-700l-503 619l3 -165v-454h-32zM324 -212l30 74q-17 5 -17 24q0 18 13.5 25t27.5 0t14 -25q0 -6 -8 -26l-31 -72h-29z" />
    <glyph glyph-name="ncommaaccent" unicode="&#x146;" horiz-adv-x="601" 
d="M85 0v494h30l-1 -112q28 61 82 90.5t113 30.5q102 0 157.5 -56t55.5 -156v-291h-30v290q0 90 -48 137.5t-135 46.5q-81 -1 -137.5 -56.5t-56.5 -136.5v-281h-30zM259 -209l30 74q-17 5 -17 24q0 18 14 25t27.5 0t13.5 -25q0 -6 -8 -26l-31 -72h-29z" />
    <glyph glyph-name="Ncaron" unicode="&#x147;" horiz-adv-x="740" 
d="M104 0v700h3l500 -616l-3 162v454h32v-700l-503 619l3 -165v-454h-32zM351 757l-134 126v4h33l117 -108l116 108h34v-4l-135 -126h-31z" />
    <glyph glyph-name="ncaron" unicode="&#x148;" horiz-adv-x="601" 
d="M85 0v494h30l-1 -112q28 61 82 90.5t113 30.5q102 0 157.5 -56t55.5 -156v-291h-30v290q0 90 -48 137.5t-135 46.5q-81 -1 -137.5 -56.5t-56.5 -136.5v-281h-30zM293 576l-129 121v4h33l112 -104l112 104h32v-4l-129 -121h-31z" />
    <glyph glyph-name="napostrophe" unicode="&#x149;" horiz-adv-x="601" 
d="M85 0v494h30l-1 -112q28 61 82 90.5t113 30.5q102 0 157.5 -56t55.5 -156v-291h-30v290q0 90 -48 137.5t-135 46.5q-81 -1 -137.5 -56.5t-56.5 -136.5v-281h-30z" />
    <glyph glyph-name="Eng" unicode="&#x14a;" horiz-adv-x="740" 
d="M104 0v700h3l500 -616l-3 162v454h32v-739q1 -74 -24 -113.5t-100 -39.5q-41 0 -78 27l6 26q41 -24 73 -24q58 0 76 31t18 93v73l-474 585l3 -165v-454h-32z" />
    <glyph glyph-name="eng" unicode="&#x14b;" horiz-adv-x="601" 
d="M85 0v494h30l-1 -112q28 61 82 90.5t113 30.5q102 0 157.5 -56t55.5 -156v-304q1 -35 -2.5 -61t-14.5 -52t-34.5 -40.5t-59.5 -15.5q-40 -1 -86 22l7 28q36 -22 79 -22q50 3 65.5 39t15.5 102v303q0 90 -48 137.5t-135 46.5q-81 -1 -137.5 -56.5t-56.5 -136.5v-281h-30z
" />
    <glyph glyph-name="Omacron" unicode="&#x14c;" horiz-adv-x="817" 
d="M407 709q85 0 154 -30t111.5 -80.5t65 -114.5t22.5 -134q-1 -96 -39 -176t-119.5 -132t-193.5 -52q-84 0 -152 30.5t-111 81.5t-65.5 115t-22.5 135q0 66 21 128t62 114t110 83.5t157 31.5zM728 350q0 138 -85 233t-236 95q-77 0 -139.5 -28t-100.5 -74.5t-58 -104
t-20 -120.5t21 -121.5t59.5 -105.5t100.5 -75t138 -28q149 0 235 97.5t85 231.5zM266 806v29h291v-29h-291z" />
    <glyph glyph-name="omacron" unicode="&#x14d;" horiz-adv-x="605" 
d="M52 246q0 117 73 186.5t178 69.5q104 0 177 -70.5t73 -185.5q0 -116 -73 -184t-178 -68t-177.5 68t-72.5 184zM523 246q0 103 -64 165t-157 62q-91 0 -155.5 -62.5t-64.5 -164.5t64 -162.5t156 -60.5t156.5 60.5t64.5 162.5zM176 661v26h254v-26h-254z" />
    <glyph glyph-name="Obreve" unicode="&#x14e;" horiz-adv-x="817" 
d="M407 709q85 0 154 -30t111.5 -80.5t65 -114.5t22.5 -134q-1 -96 -39 -176t-119.5 -132t-193.5 -52q-84 0 -152 30.5t-111 81.5t-65.5 115t-22.5 135q0 66 21 128t62 114t110 83.5t157 31.5zM728 350q0 138 -85 233t-236 95q-77 0 -139.5 -28t-100.5 -74.5t-58 -104
t-20 -120.5t21 -121.5t59.5 -105.5t100.5 -75t138 -28q149 0 235 97.5t85 231.5zM529 882q-1 -47 -34.5 -73.5t-79.5 -27.5q-47 -1 -82 26t-37 75h25q0 -37 28 -57t66 -19q35 1 61.5 21t27.5 55h25z" />
    <glyph glyph-name="obreve" unicode="&#x14f;" horiz-adv-x="605" 
d="M52 246q0 117 73 186.5t178 69.5q104 0 177 -70.5t73 -185.5q0 -116 -73 -184t-178 -68t-177.5 68t-72.5 184zM523 246q0 103 -64 165t-157 62q-91 0 -155.5 -62.5t-64.5 -164.5t64 -162.5t156 -60.5t156.5 60.5t64.5 162.5zM420 691q-1 -47 -34.5 -73.5t-79.5 -27.5
q-47 -1 -82 26t-37 75h25q0 -37 28 -57t66 -19q35 1 61.5 21t27.5 55h25z" />
    <glyph glyph-name="Ohungarumlaut" unicode="&#x150;" horiz-adv-x="817" 
d="M407 709q85 0 154 -30t111.5 -80.5t65 -114.5t22.5 -134q-1 -96 -39 -176t-119.5 -132t-193.5 -52q-84 0 -152 30.5t-111 81.5t-65.5 115t-22.5 135q0 66 21 128t62 114t110 83.5t157 31.5zM728 350q0 138 -85 233t-236 95q-77 0 -139.5 -28t-100.5 -74.5t-58 -104
t-20 -120.5t21 -121.5t59.5 -105.5t100.5 -75t138 -28q149 0 235 97.5t85 231.5zM353 774h-31l66 100h38zM476 774h-31l66 100h38z" />
    <glyph glyph-name="ohungarumlaut" unicode="&#x151;" horiz-adv-x="605" 
d="M52 246q0 117 73 186.5t178 69.5q104 0 177 -70.5t73 -185.5q0 -116 -73 -184t-178 -68t-177.5 68t-72.5 184zM523 246q0 103 -64 165t-157 62q-91 0 -155.5 -62.5t-64.5 -164.5t64 -162.5t156 -60.5t156.5 60.5t64.5 162.5zM251 591h-31l66 100h38zM374 591h-31l66 100
h38z" />
    <glyph glyph-name="OE" unicode="&#x152;" horiz-adv-x="935" 
d="M883 0h-414q-29 -3 -58 -3q-167 0 -259.5 101t-92.5 252q0 153 91.5 253.5t260.5 100.5q38 0 60 -4h389v-27h-364v-298h344v-29h-344v-319h387v-27zM469 28v647q-40 2 -58 2q-154 0 -237.5 -92t-82.5 -235q2 -144 84.5 -234t234.5 -90q19 0 59 2z" />
    <glyph glyph-name="oe" unicode="&#x153;" horiz-adv-x="1057" 
d="M957 110l23 -17q-34 -47 -92.5 -72t-121.5 -25q-80 0 -142.5 42t-87.5 118q-25 -77 -88.5 -119.5t-145.5 -42.5q-105 0 -177.5 68t-72.5 184q0 117 73 186.5t178 69.5q81 0 145 -44.5t88 -122.5q24 76 85.5 120.5t143.5 44.5q112 0 185.5 -67.5t60.5 -200.5h-461
q8 -100 69.5 -153.5t146.5 -53.5q55 0 109 23t82 62zM523 246q0 103 -64 165t-157 62q-91 0 -155.5 -62.5t-64.5 -164.5t64 -162.5t156 -60.5t156.5 60.5t64.5 162.5zM550 260h434q3 101 -56 156t-163 55q-89 0 -148.5 -56t-66.5 -155z" />
    <glyph glyph-name="Racute" unicode="&#x154;" horiz-adv-x="692" 
d="M603 0l-254 275h-213v-275h-32v700h302q104 0 161 -63.5t58 -150.5q1 -95 -58 -155.5t-176 -55.5l255 -275h-43zM136 306h262q96 0 145.5 48.5t49.5 131.5q0 74 -49.5 128.5t-137.5 54.5h-270v-363zM335 769h-30v3l76 116h39z" />
    <glyph glyph-name="racute" unicode="&#x155;" horiz-adv-x="391" 
d="M85 494h29v-54l-3 -68q18 56 67.5 91t110.5 35q52 0 96 -24l-13 -25q-38 21 -83 21q-73 -1 -123 -53.5t-50 -121.5v-295h-31v494zM224 592h-27v3l69 106h36z" />
    <glyph glyph-name="Rcommaaccent" unicode="&#x156;" horiz-adv-x="692" 
d="M603 0l-254 275h-213v-275h-32v700h302q104 0 161 -63.5t58 -150.5q1 -95 -58 -155.5t-176 -55.5l255 -275h-43zM136 306h262q96 0 145.5 48.5t49.5 131.5q0 74 -49.5 128.5t-137.5 54.5h-270v-363zM305 -216l30 74q-17 5 -17 24q0 18 14 25t27.5 0t13.5 -25q0 -6 -8 -26
l-31 -72h-29z" />
    <glyph glyph-name="rcommaaccent" unicode="&#x157;" horiz-adv-x="391" 
d="M85 494h29v-54l-3 -68q18 56 67.5 91t110.5 35q52 0 96 -24l-13 -25q-38 21 -83 21q-73 -1 -123 -53.5t-50 -121.5v-295h-31v494zM62 -216l30 74q-17 5 -17 24q0 17 13.5 24.5t27.5 0.5t14 -25q0 -6 -8 -26l-31 -72h-29z" />
    <glyph glyph-name="Rcaron" unicode="&#x158;" horiz-adv-x="692" 
d="M603 0l-254 275h-213v-275h-32v700h302q104 0 161 -63.5t58 -150.5q1 -95 -58 -155.5t-176 -55.5l255 -275h-43zM136 306h262q96 0 145.5 48.5t49.5 131.5q0 74 -49.5 128.5t-137.5 54.5h-270v-363zM314 766l-133 124v4h34l115 -107l115 107h33v-4l-133 -124h-31z" />
    <glyph glyph-name="rcaron" unicode="&#x159;" horiz-adv-x="391" 
d="M85 494h29v-54l-3 -68q18 56 67.5 91t110.5 35q52 0 96 -24l-13 -25q-38 21 -83 21q-73 -1 -123 -53.5t-50 -121.5v-295h-31v494zM218 574l-116 123v3h29l101 -104l100 104h29v-3l-116 -123h-27z" />
    <glyph glyph-name="Sacute" unicode="&#x15a;" horiz-adv-x="653" 
d="M575 604l-22 -22q-69 94 -225 94q-36 0 -70 -6t-72.5 -21t-62 -49t-23.5 -83q0 -28 13 -49t30.5 -34.5t53 -25.5t61.5 -17.5t74 -15.5q130 -28 176 -50q95 -46 95 -144q0 -45 -18.5 -80t-46 -55.5t-65.5 -33t-71.5 -17t-69.5 -4.5q-83 0 -163.5 37.5t-119.5 109.5l28 16
q33 -63 107.5 -97.5t147.5 -34.5q38 0 74.5 6t76.5 22t64 49.5t24 81.5q0 21 -4 38t-16 31t-21 24t-31.5 20t-33 15t-40.5 12.5t-39.5 9.5t-43.5 9q-13 3 -19 4q-127 28 -171 49q-84 42 -84 124q-1 53 23 92t65 59.5t84 29.5t89 9q162 0 246 -103zM328 771h-30v3l76 116h39z
" />
    <glyph glyph-name="sacute" unicode="&#x15b;" horiz-adv-x="503" 
d="M437 435l-19 -21q-62 59 -164 59q-71 0 -117.5 -25t-46.5 -78q0 -20 9 -35.5t19 -24.5t32 -17t33.5 -11t39 -8t32.5 -6q7 -1 29 -5t31.5 -6.5t29.5 -7t30 -9.5t25.5 -12.5t23.5 -16.5t17 -20.5t12.5 -27t3.5 -33.5q0 -37 -18 -64.5t-48.5 -42t-64 -21.5t-70.5 -7
q-69 0 -128 27t-85 74l24 17q30 -45 81.5 -67.5t108.5 -22.5q27 0 53.5 4.5t54.5 15.5t45 33.5t17 54.5q0 36 -27 58.5t-51.5 29.5t-79.5 17q-13 3 -20 4q-34 6 -48.5 9.5t-42 11t-41 15.5t-29 21t-22 31.5t-6.5 41.5q0 65 56 98t138 33q113 0 183 -66zM261 588h-29v3
l72 110h37z" />
    <glyph glyph-name="Scircumflex" unicode="&#x15c;" horiz-adv-x="653" 
d="M575 604l-22 -22q-69 94 -225 94q-36 0 -70 -6t-72.5 -21t-62 -49t-23.5 -83q0 -28 13 -49t30.5 -34.5t53 -25.5t61.5 -17.5t74 -15.5q130 -28 176 -50q95 -46 95 -144q0 -45 -18.5 -80t-46 -55.5t-65.5 -33t-71.5 -17t-69.5 -4.5q-83 0 -163.5 37.5t-119.5 109.5l28 16
q33 -63 107.5 -97.5t147.5 -34.5q38 0 74.5 6t76.5 22t64 49.5t24 81.5q0 21 -4 38t-16 31t-21 24t-31.5 20t-33 15t-40.5 12.5t-39.5 9.5t-43.5 9q-13 3 -19 4q-127 28 -171 49q-84 42 -84 124q-1 53 23 92t65 59.5t84 29.5t89 9q162 0 246 -103zM344 904l139 -131v-4h-35
l-121 112l-120 -112h-35v4l139 131h33z" />
    <glyph glyph-name="scircumflex" unicode="&#x15d;" horiz-adv-x="503" 
d="M437 435l-19 -21q-62 59 -164 59q-71 0 -117.5 -25t-46.5 -78q0 -20 9 -35.5t19 -24.5t32 -17t33.5 -11t39 -8t32.5 -6q7 -1 29 -5t31.5 -6.5t29.5 -7t30 -9.5t25.5 -12.5t23.5 -16.5t17 -20.5t12.5 -27t3.5 -33.5q0 -37 -18 -64.5t-48.5 -42t-64 -21.5t-70.5 -7
q-69 0 -128 27t-85 74l24 17q30 -45 81.5 -67.5t108.5 -22.5q27 0 53.5 4.5t54.5 15.5t45 33.5t17 54.5q0 36 -27 58.5t-51.5 29.5t-79.5 17q-13 3 -20 4q-34 6 -48.5 9.5t-42 11t-41 15.5t-29 21t-22 31.5t-6.5 41.5q0 65 56 98t138 33q113 0 183 -66zM275 698l127 -120v-4
h-32l-110 103l-110 -103h-33v4l128 120h30z" />
    <glyph glyph-name="Scedilla" unicode="&#x15e;" horiz-adv-x="653" 
d="M306 -90l-1 1l17 80q-82 2 -159 39.5t-114 107.5l28 16q33 -63 107.5 -97.5t147.5 -34.5q38 0 74.5 6t76.5 22t64 49.5t24 81.5q0 21 -4 38t-16 31t-21 24t-31.5 20t-33 15t-40.5 12.5t-39.5 9.5t-43.5 9q-13 3 -19 4q-127 28 -171 49q-84 42 -84 124q-1 53 23 92
t65 59.5t84 29.5t89 9q162 0 246 -103l-22 -22q-69 94 -225 94q-36 0 -70 -6t-72.5 -21t-62 -49t-23.5 -83q0 -28 13 -49t30.5 -34.5t53 -25.5t61.5 -17.5t74 -15.5q130 -28 176 -50q95 -46 95 -144q0 -53 -24 -91.5t-63.5 -58.5t-80 -29t-85.5 -10l-12 -56q58 4 84 -25.5
t13 -67.5q-18 -60 -98 -62q-74 0 -102 49l20 17q30 -39 82 -39q56 0 69 42q10 31 -15 50.5t-85 9.5z" />
    <glyph glyph-name="scedilla" unicode="&#x15f;" horiz-adv-x="503" 
d="M224 -76l-1 1l15 71q-64 3 -117.5 29.5t-77.5 70.5l24 17q30 -45 81.5 -67.5t108.5 -22.5q27 0 53.5 4.5t54.5 15.5t45 33.5t17 54.5q0 36 -27 58.5t-51.5 29.5t-79.5 17q-13 3 -20 4q-34 6 -48.5 9.5t-42 11t-41 15.5t-29 21t-22 31.5t-6.5 41.5q0 65 56 98t138 33
q113 0 183 -66l-19 -21q-62 59 -164 59q-71 0 -117.5 -25t-46.5 -78q0 -20 9 -35.5t19 -24.5t32 -17t33.5 -11t39 -8t32.5 -6q7 -1 29 -5t31.5 -6.5t29.5 -7t30 -9.5t25.5 -12.5t23.5 -16.5t17 -20.5t12.5 -27t3.5 -33.5q0 -48 -31 -79.5t-72 -43t-91 -12.5l-11 -48
q51 4 74 -22.5t12 -61.5q-17 -53 -87 -55q-63 0 -90 44l19 15q27 -35 71 -35q49 0 61 38q8 27 -14 44.5t-74 9.5z" />
    <glyph glyph-name="Scaron" unicode="&#x160;" horiz-adv-x="653" 
d="M575 604l-22 -22q-69 94 -225 94q-36 0 -70 -6t-72.5 -21t-62 -49t-23.5 -83q0 -28 13 -49t30.5 -34.5t53 -25.5t61.5 -17.5t74 -15.5q130 -28 176 -50q95 -46 95 -144q0 -45 -18.5 -80t-46 -55.5t-65.5 -33t-71.5 -17t-69.5 -4.5q-83 0 -163.5 37.5t-119.5 109.5l28 16
q33 -63 107.5 -97.5t147.5 -34.5q38 0 74.5 6t76.5 22t64 49.5t24 81.5q0 21 -4 38t-16 31t-21 24t-31.5 20t-33 15t-40.5 12.5t-39.5 9.5t-43.5 9q-13 3 -19 4q-127 28 -171 49q-84 42 -84 124q-1 53 23 92t65 59.5t84 29.5t89 9q162 0 246 -103zM317 772l-139 131v4h35
l121 -112l120 112h35v-4l-139 -131h-33z" />
    <glyph glyph-name="scaron" unicode="&#x161;" horiz-adv-x="503" 
d="M437 435l-19 -21q-62 59 -164 59q-71 0 -117.5 -25t-46.5 -78q0 -20 9 -35.5t19 -24.5t32 -17t33.5 -11t39 -8t32.5 -6q7 -1 29 -5t31.5 -6.5t29.5 -7t30 -9.5t25.5 -12.5t23.5 -16.5t17 -20.5t12.5 -27t3.5 -33.5q0 -37 -18 -64.5t-48.5 -42t-64 -21.5t-70.5 -7
q-69 0 -128 27t-85 74l24 17q30 -45 81.5 -67.5t108.5 -22.5q27 0 53.5 4.5t54.5 15.5t45 33.5t17 54.5q0 36 -27 58.5t-51.5 29.5t-79.5 17q-13 3 -20 4q-34 6 -48.5 9.5t-42 11t-41 15.5t-29 21t-22 31.5t-6.5 41.5q0 65 56 98t138 33q113 0 183 -66zM243 580l-132 124v3
h33l115 -105l115 105h33v-3l-132 -124h-32z" />
    <glyph glyph-name="Tcommaaccent" unicode="&#x162;" horiz-adv-x="587" 
d="M263 -73l-1 1l15 73v668h-262v31h557v-31h-263v-669h-7l-11 -49q54 4 77.5 -23.5t12.5 -63.5q-18 -56 -91 -58q-67 0 -93 46l19 15q27 -34 74 -36q53 0 64 40q9 28 -14 46.5t-77 9.5z" />
    <glyph glyph-name="tcommaaccent" unicode="&#x163;" horiz-adv-x="377" 
d="M145 643l30 3v-152h176v-26h-176v-321q0 -63 19 -94.5t79 -31.5q39 0 89 25l13 -25q-53 -28 -100 -28q-11 0 -16 1l-11 -48q51 4 74.5 -22.5t12.5 -61.5q-18 -54 -88 -56q-64 0 -90 44l18 15q27 -33 72 -35q50 0 62 39q8 27 -14 44.5t-74 9.5l-1 1l14 73
q-50 10 -69.5 46.5t-19.5 103.5v321h-108v26h108v149z" />
    <glyph glyph-name="Tcaron" unicode="&#x164;" horiz-adv-x="587" 
d="M15 669v31h557v-31h-263v-669h-32v669h-262zM278 761l-139 131v4h35l121 -112l120 112h35v-4l-139 -131h-33z" />
    <glyph glyph-name="tcaron" unicode="&#x165;" horiz-adv-x="390" 
d="M145 643l30 3v-152h120v-26h-120v-321q0 -63 19 -94.5t79 -31.5q39 0 89 25l13 -25q-53 -28 -100 -28q-74 1 -102 38.5t-28 115.5v321h-108v26h108v149zM373 506h-27l41 146h33z" />
    <glyph glyph-name="Tbar" unicode="&#x166;" horiz-adv-x="597" 
d="M149 344v28h133v297h-262v31h557v-31h-263v-297h138v-28h-138v-344h-32v344h-133z" />
    <glyph glyph-name="tbar" unicode="&#x167;" horiz-adv-x="377" 
d="M145 643l30 3v-152h176v-26h-176v-183h128v-26h-128v-112q0 -63 19 -94.5t79 -31.5q39 0 89 25l13 -25q-53 -28 -100 -28q-74 1 -102 38.5t-28 115.5v112h-81v26h81v183h-108v26h108v149z" />
    <glyph glyph-name="Utilde" unicode="&#x168;" horiz-adv-x="708" 
d="M580 700h32v-443q0 -66 -23 -118t-60.5 -83t-82.5 -47.5t-93 -16.5q-49 0 -94 16.5t-82 48t-59 83.5t-22 117v443h32v-443q0 -114 67.5 -174t157.5 -60t158.5 60t68.5 174v443zM345 827l42 -23q53 -28 70 27l21 -8q-10 -40 -37 -52t-67 9l-42 23q-54 30 -70 -24l-21 8
q10 38 37 49.5t67 -9.5z" />
    <glyph glyph-name="utilde" unicode="&#x169;" horiz-adv-x="601" 
d="M516 494v-494h-30l1 112q-28 -61 -82 -90.5t-113 -30.5q-102 0 -157.5 56t-55.5 156v291h30v-290q0 -90 48 -137.5t135 -46.5q81 1 137.5 56.5t56.5 136.5v281h30zM292 692l42 -23q53 -28 70 27l21 -8q-10 -40 -37 -52t-67 9l-42 23q-54 30 -70 -24l-21 8q10 38 37 49.5
t67 -9.5z" />
    <glyph glyph-name="Umacron" unicode="&#x16a;" horiz-adv-x="708" 
d="M580 700h32v-443q0 -66 -23 -118t-60.5 -83t-82.5 -47.5t-93 -16.5q-49 0 -94 16.5t-82 48t-59 83.5t-22 117v443h32v-443q0 -114 67.5 -174t157.5 -60t158.5 60t68.5 174v443zM230 773v27h245v-27h-245z" />
    <glyph glyph-name="umacron" unicode="&#x16b;" horiz-adv-x="601" 
d="M516 494v-494h-30l1 112q-28 -61 -82 -90.5t-113 -30.5q-102 0 -157.5 56t-55.5 156v291h30v-290q0 -90 48 -137.5t135 -46.5q81 1 137.5 56.5t56.5 136.5v281h30zM179 660v27h250v-27h-250z" />
    <glyph glyph-name="Ubreve" unicode="&#x16c;" horiz-adv-x="708" 
d="M580 700h32v-443q0 -66 -23 -118t-60.5 -83t-82.5 -47.5t-93 -16.5q-49 0 -94 16.5t-82 48t-59 83.5t-22 117v443h32v-443q0 -114 67.5 -174t157.5 -60t158.5 60t68.5 174v443zM472 860q-1 -47 -34.5 -73.5t-79.5 -27.5q-47 -1 -82 26t-37 75h25q0 -37 28 -57t66 -19
q35 1 61.5 21t27.5 55h25z" />
    <glyph glyph-name="ubreve" unicode="&#x16d;" horiz-adv-x="601" 
d="M516 494v-494h-30l1 112q-28 -61 -82 -90.5t-113 -30.5q-102 0 -157.5 56t-55.5 156v291h30v-290q0 -90 48 -137.5t135 -46.5q81 1 137.5 56.5t56.5 136.5v281h30zM423 700q-1 -47 -34.5 -73.5t-79.5 -27.5q-47 -1 -82 26t-37 75h25q0 -37 28 -57t66 -19q35 1 61.5 21
t27.5 55h25z" />
    <glyph glyph-name="Uring" unicode="&#x16e;" horiz-adv-x="708" 
d="M580 700h32v-443q0 -66 -23 -118t-60.5 -83t-82.5 -47.5t-93 -16.5q-49 0 -94 16.5t-82 48t-59 83.5t-22 117v443h32v-443q0 -114 67.5 -174t157.5 -60t158.5 60t68.5 174v443zM422 828q0 37 -33.5 52.5t-67 0.5t-33.5 -54q0 -22 14 -36.5t33.5 -18t39 0t33.5 18.5t14 37
zM447 828q0 -32 -19 -53.5t-45.5 -26t-53.5 0.5t-46 26t-19 52q0 32 19 53.5t46 26t53.5 -1t45.5 -26.5t19 -51z" />
    <glyph glyph-name="uring" unicode="&#x16f;" horiz-adv-x="601" 
d="M516 494v-494h-30l1 112q-28 -61 -82 -90.5t-113 -30.5q-102 0 -157.5 56t-55.5 156v291h30v-290q0 -90 48 -137.5t135 -46.5q81 1 137.5 56.5t56.5 136.5v281h30zM369 634q0 37 -34 52.5t-68 0.5t-34 -54q0 -22 14 -36.5t34 -18t40 0t34 18.5t14 37zM394 634
q0 -32 -19 -53.5t-46.5 -26t-55 0.5t-46.5 26t-19 52q0 32 19 53.5t46.5 26t55 -1t46.5 -26.5t19 -51z" />
    <glyph glyph-name="Uhungarumlaut" unicode="&#x170;" horiz-adv-x="708" 
d="M580 700h32v-443q0 -66 -23 -118t-60.5 -83t-82.5 -47.5t-93 -16.5q-49 0 -94 16.5t-82 48t-59 83.5t-22 117v443h32v-443q0 -114 67.5 -174t157.5 -60t158.5 60t68.5 174v443zM290 767h-31l66 100h38zM413 767h-31l66 100h38z" />
    <glyph glyph-name="uhungarumlaut" unicode="&#x171;" horiz-adv-x="601" 
d="M516 494v-494h-30l1 112q-28 -61 -82 -90.5t-113 -30.5q-102 0 -157.5 56t-55.5 156v291h30v-290q0 -90 48 -137.5t135 -46.5q81 1 137.5 56.5t56.5 136.5v281h30zM242 600h-31l66 100h38zM365 600h-31l66 100h38z" />
    <glyph glyph-name="Uogonek" unicode="&#x172;" horiz-adv-x="708" 
d="M580 700h32v-443q0 -98 -50 -163t-127 -90q-30 -14 -37.5 -40.5t6.5 -47.5q22 -40 75 -37q28 1 57 17t45 45l26 -13q-15 -35 -50 -55.5t-75 -22.5q-76 -1 -107 50q-12 20 -9.5 47t18.5 46q-110 -13 -199 58.5t-89 205.5v443h32v-443q0 -110 68.5 -173t156.5 -63
q89 0 158 62.5t69 173.5v443z" />
    <glyph glyph-name="uogonek" unicode="&#x173;" horiz-adv-x="600" 
d="M515 494v-533q-38 2 -64.5 -5.5t-36.5 -19t-14.5 -25.5t2.5 -25q17 -41 71 -38q26 1 53 16t41 41l21 -9q-15 -33 -45.5 -52.5t-65.5 -21.5q-79 -3 -99 52q-15 41 13 74t93 34l2 128q-23 -52 -75 -84.5t-106 -33.5q-103 0 -165 56.5t-62 155.5v290h30v-289
q0 -89 52.5 -137t140.5 -47q80 1 131.5 56.5t51.5 137.5v279h31z" />
    <glyph glyph-name="Wcircumflex" unicode="&#x174;" horiz-adv-x="1082" 
d="M286 -2l-242 702h34l229 -674l226 674h16l224 -674l232 674h35l-246 -702h-45l-117 354l-91 286l-92 -283l-119 -357h-44zM555 904l139 -131v-4h-35l-121 112l-120 -112h-35v4l139 131h33z" />
    <glyph glyph-name="wcircumflex" unicode="&#x175;" horiz-adv-x="814" 
d="M223 0l-177 494h34l158 -453l162 453h17l160 -453l157 453h34l-176 -494h-32l-152 431l-153 -431h-32zM425 698l136 -128v-4h-34l-118 110l-118 -110h-34v4l136 128h32z" />
    <glyph glyph-name="Ycircumflex" unicode="&#x176;" horiz-adv-x="650" 
d="M309 0v278l-275 422h38l253 -392l252 392h38l-274 -422v-278h-32zM342 904l139 -131v-4h-35l-121 112l-120 -112h-35v4l139 131h33z" />
    <glyph glyph-name="ycircumflex" unicode="&#x177;" horiz-adv-x="529" 
d="M454 494h34l-315 -736h-33l105 248l-200 488h33l184 -457zM282 704l132 -124v-4h-33l-115 106l-114 -106h-33v4l132 124h31z" />
    <glyph glyph-name="Ydieresis" unicode="&#x178;" horiz-adv-x="650" 
d="M309 0v278l-275 422h38l253 -392l252 392h38l-274 -422v-278h-32zM195 795q0 17 14 24.5t28 0t14 -24.5t-14 -24.5t-28 0t-14 24.5zM401 795q0 17 14 24.5t28 0t14 -24.5t-14 -24.5t-28 0t-14 24.5z" />
    <glyph glyph-name="Zacute" unicode="&#x179;" horiz-adv-x="580" 
d="M56 670v30h490v-8l-474 -661h474v-31h-527v10l473 660h-436zM295 772h-30v3l76 116h39z" />
    <glyph glyph-name="zacute" unicode="&#x17a;" horiz-adv-x="448" 
d="M45 466v28h367v-9l-335 -456h334v-29h-381v9l334 457h-319zM227 584h-28v3l70 114h36z" />
    <glyph glyph-name="Zdotaccent" unicode="&#x17b;" horiz-adv-x="580" 
d="M56 670v30h490v-8l-474 -661h474v-31h-527v10l473 660h-436zM267 827q0 19 15.5 27t31.5 0t16 -27q0 -20 -16 -28t-31.5 0t-15.5 28z" />
    <glyph glyph-name="zdotaccent" unicode="&#x17c;" horiz-adv-x="448" 
d="M45 466v28h367v-9l-335 -456h334v-29h-381v9l334 457h-319zM208 662q0 19 16 27t31.5 0t15.5 -27q0 -20 -15.5 -28t-31.5 0t-16 28z" />
    <glyph glyph-name="Zcaron" unicode="&#x17d;" horiz-adv-x="580" 
d="M56 670v30h490v-8l-474 -661h474v-31h-527v10l473 660h-436zM297 769l-139 131v4h35l121 -112l120 112h35v-4l-139 -131h-33z" />
    <glyph glyph-name="zcaron" unicode="&#x17e;" horiz-adv-x="448" 
d="M45 466v28h367v-9l-335 -456h334v-29h-381v9l334 457h-319zM221 578l-124 118v3h31l109 -100l107 100h32v-3l-125 -118h-30z" />
    <glyph glyph-name="longs" unicode="&#x17f;" horiz-adv-x="273" 
d="M168 0h-30v464h-103v27h103v47q0 76 30.5 119.5t108.5 43.5q49 0 90 -33l-19 -22q-42 25 -76 25q-104 0 -104 -133v-538z" />
    <glyph glyph-name="florin" unicode="&#x192;" horiz-adv-x="418" 
d="M198 0q0 -75 -22.5 -114.5t-92.5 -42.5q-50 0 -91 33l17 21q20 -15 34 -20.5t40 -5.5q46 2 65.5 30.5t19.5 98.5v464h-116v29h116v53q0 74 29.5 115t105.5 42q55 0 94 -33l-18 -21q-33 25 -77 25q-53 0 -78.5 -28.5t-25.5 -99.5v-53h168v-29h-168v-464z" />
    <glyph glyph-name="Aringacute" unicode="&#x1fa;" horiz-adv-x="730" 
d="M346 870v3l69 79h36v-1l-77 -81h-28zM460 762q0 -67 -66 -85l304 -677h-38l-81 182h-429l-80 -182h-38l304 678q-65 18 -65 83q0 33 19.5 54.5t47.5 26t55.5 -1t47 -27t19.5 -51.5zM162 213h404l-201 457zM433 762q0 33 -34 48.5t-68 1.5t-34 -51q0 -24 14 -41t34 -20.5
t40 0t34 20.5t14 42z" />
    <glyph glyph-name="aringacute" unicode="&#x1fb;" 
d="M312 742v3l71 87h35l-80 -90h-26zM546 0h-30v63l6 71q-24 -68 -87 -104.5t-133 -35.5q-105 0 -177.5 69.5t-72.5 183.5q0 113 71.5 183t176.5 70q74 0 138.5 -38.5t83.5 -107.5l-6 80v60h30v-494zM299 471q-93 0 -155 -61t-62 -163t64 -163t157 -61q106 0 160 65.5
t54 163.5q0 93 -57 156t-161 63zM398 626q0 37 -33 53t-66 1t-33 -55q0 -36 33 -51.5t66 0t33 52.5zM423 626q0 -32 -18.5 -53.5t-45 -26.5t-53.5 0t-45.5 26.5t-18.5 52.5q0 33 18.5 54.5t45 26t53.5 -1t45.5 -27t18.5 -51.5z" />
    <glyph glyph-name="AEacute" unicode="&#x1fc;" horiz-adv-x="910" 
d="M213 303l236 -1l1 372zM-11 0l442 700h409v-29h-360v-302h337v-30h-337v-307h376v-32h-407v273h-252l-171 -273h-37zM485 758h-30v3l76 116h39z" />
    <glyph glyph-name="aeacute" unicode="&#x1fd;" horiz-adv-x="1050" 
d="M605 702l-1 -1zM619 701l-79 -109h-26v4l69 105h36zM545 0h-28v63l4 69q-24 -68 -86.5 -103.5t-132.5 -34.5q-105 0 -177.5 69.5t-72.5 183.5q0 113 71.5 183t176.5 70q74 0 138.5 -39t83.5 -108l-5 81v60h28v-124q29 61 85 95.5t128 34.5q112 0 185.5 -67.5t60.5 -200.5
h-459q8 -101 68.5 -154t145.5 -53q55 0 109 23t82 62l23 -17q-34 -47 -92.5 -72t-121.5 -25q-70 0 -127 33t-87 94v-123zM299 471q-93 0 -155 -61t-62 -163t64 -163t157 -61q104 0 159.5 63t55.5 160q-2 101 -58.5 163t-160.5 62zM545 260h432q3 101 -56 156t-163 55
q-89 0 -147.5 -56t-65.5 -155z" />
    <glyph glyph-name="Oslashacute" unicode="&#x1fe;" horiz-adv-x="817" 
d="M407 709q109 0 191 -49l59 98h36l-69 -115q66 -49 101 -127t35 -166q-1 -96 -39 -176t-119.5 -132t-193.5 -52q-88 0 -159 33l-63 -104h-35l71 118q-80 47 -122.5 132t-42.5 183q0 66 21 128t62 114t110 83.5t157 31.5zM89 351q0 -88 39 -165t111 -121l342 568
q-76 45 -174 45q-77 0 -139.5 -28t-100.5 -74.5t-58 -104t-20 -120.5zM728 350q0 81 -31 150.5t-90 114.5l-341 -564q63 -30 142 -30q149 0 235 97.5t85 231.5zM421 788h-30v3l76 116h39z" />
    <glyph glyph-name="oslashacute" unicode="&#x1ff;" horiz-adv-x="604" 
d="M111 -51l51 84q-109 69 -109 213q0 117 72.5 187t177.5 70q67 0 123 -29l37 62h35l-47 -79q47 -33 74 -88t27 -123q0 -116 -72.5 -184t-177.5 -68q-67 0 -115 24l-42 -69h-34zM177 58l232 390q-52 25 -107 25q-91 0 -155.5 -62.5t-64.5 -164.5q0 -126 95 -188zM435 433
l-231 -387q41 -20 98 -20q93 0 157 59t64 161q0 122 -88 187zM315 590h-27v3l70 108h37z" />
    <glyph glyph-name="Scommaaccent" unicode="&#x218;" horiz-adv-x="653" 
d="M575 604l-22 -22q-69 94 -225 94q-36 0 -70 -6t-72.5 -21t-62 -49t-23.5 -83q0 -28 13 -49t30.5 -34.5t53 -25.5t61.5 -17.5t74 -15.5q130 -28 176 -50q95 -46 95 -144q0 -45 -18.5 -80t-46 -55.5t-65.5 -33t-71.5 -17t-69.5 -4.5q-83 0 -163.5 37.5t-119.5 109.5l28 16
q33 -63 107.5 -97.5t147.5 -34.5q38 0 74.5 6t76.5 22t64 49.5t24 81.5q0 21 -4 38t-16 31t-21 24t-31.5 20t-33 15t-40.5 12.5t-39.5 9.5t-43.5 9q-13 3 -19 4q-127 28 -171 49q-84 42 -84 124q-1 53 23 92t65 59.5t84 29.5t89 9q162 0 246 -103zM305 -231l30 74
q-17 5 -17 24q0 17 14 24.5t27.5 0.5t13.5 -25q0 -6 -8 -26l-31 -72h-29z" />
    <glyph glyph-name="scommaaccent" unicode="&#x219;" horiz-adv-x="503" 
d="M216 -231l30 74q-17 5 -17 24q0 17 13.5 24.5t27.5 0.5t14 -25q0 -6 -8 -26l-31 -72h-29zM437 435l-19 -21q-62 59 -164 59q-71 0 -117.5 -25t-46.5 -78q0 -20 9 -35.5t19 -24.5t32 -17t33.5 -11t39 -8t32.5 -6q7 -1 29 -5t31.5 -6.5t29.5 -7t30 -9.5t25.5 -12.5
t23.5 -16.5t17 -20.5t12.5 -27t3.5 -33.5q0 -37 -18 -64.5t-48.5 -42t-64 -21.5t-70.5 -7q-69 0 -128 27t-85 74l24 17q30 -45 81.5 -67.5t108.5 -22.5q27 0 53.5 4.5t54.5 15.5t45 33.5t17 54.5q0 36 -27 58.5t-51.5 29.5t-79.5 17q-13 3 -20 4q-34 6 -48.5 9.5t-42 11
t-41 15.5t-29 21t-22 31.5t-6.5 41.5q0 65 56 98t138 33q113 0 183 -66z" />
    <glyph glyph-name="uni021A" unicode="&#x21a;" horiz-adv-x="587" 
d="M252 -231l30 74q-17 5 -17 24q0 17 13.5 24.5t27.5 0.5t14 -25q0 -6 -8 -26l-31 -72h-29zM15 669v31h557v-31h-263v-669h-32v669h-262z" />
    <glyph glyph-name="uni021B" unicode="&#x21b;" horiz-adv-x="377" 
d="M205 -233l30 74q-17 5 -17 24q0 17 14 24.5t27.5 0.5t13.5 -25q0 -6 -8 -26l-31 -72h-29zM145 643l30 3v-152h176v-26h-176v-321q0 -63 19 -94.5t79 -31.5q39 0 89 25l13 -25q-53 -28 -100 -28q-74 1 -102 38.5t-28 115.5v321h-108v26h108v149z" />
    <glyph glyph-name="dotlessj" unicode="&#x237;" horiz-adv-x="200" 
d="M85 495h30v-576q1 -36 -3 -62t-16.5 -50.5t-38.5 -37t-66 -12.5q-41 0 -87 24l10 27q36 -22 79 -22q31 0 50 10t28 31t11.5 41t2.5 51v576z" />
    <glyph glyph-name="circumflex" unicode="&#x2c6;" horiz-adv-x="420" 
d="M214 698l139 -131v-4h-35l-121 112l-120 -112h-35v4l139 131h33z" />
    <glyph glyph-name="caron" unicode="&#x2c7;" horiz-adv-x="404" 
d="M180 566l-139 131v4h35l121 -112l120 112h35v-4l-139 -131h-33z" />
    <glyph glyph-name="breve" unicode="&#x2d8;" horiz-adv-x="324" 
d="M272 700q-1 -47 -34.5 -73.5t-79.5 -27.5q-47 -1 -82 26t-37 75h25q0 -37 28 -57t66 -19q35 1 61.5 21t27.5 55h25z" />
    <glyph glyph-name="dotaccent" unicode="&#x2d9;" horiz-adv-x="208" 
d="M67 674q0 19 15.5 27t31.5 0t16 -27q0 -20 -15.5 -28t-31.5 0t-16 28z" />
    <glyph glyph-name="ring" unicode="&#x2da;" horiz-adv-x="283" 
d="M202 632q0 41 -34.5 58.5t-69 0.5t-34.5 -60q0 -24 14 -40.5t34.5 -20.5t41 0t34.5 20.5t14 41.5zM228 632q0 -35 -19.5 -58.5t-47.5 -29t-55.5 0t-47 29t-19.5 57.5q0 36 19.5 60t47.5 28.5t55.5 -1.5t47 -29.5t19.5 -56.5z" />
    <glyph glyph-name="ogonek" unicode="&#x2db;" horiz-adv-x="414" 
d="M217 -6l15 -26q-41 7 -69.5 1t-39 -20t-15 -30.5t3.5 -30.5q19 -43 71 -40q26 1 52.5 16t40.5 41l25 -11q-14 -32 -46 -51t-68 -21q-76 -4 -100 53q-20 48 18.5 87.5t111.5 31.5z" />
    <glyph glyph-name="tilde" unicode="&#x2dc;" horiz-adv-x="307" 
d="M134 692l42 -23q53 -28 70 27l21 -8q-10 -40 -37 -52t-67 9l-42 23q-54 30 -70 -24l-21 8q10 38 37 49.5t67 -9.5z" />
    <glyph glyph-name="hungarumlaut" unicode="&#x2dd;" horiz-adv-x="331" 
d="M69 601h-31l66 100h38zM192 601h-31l66 100h38z" />
    <glyph glyph-name="commaaccentcomb" unicode="&#x326;" horiz-adv-x="281" 
d="M72 -200l30 68q-16 10 -16 27t14 24.5t27.5 0.5t13.5 -24l-39 -100q-1 -3 1 4h-31z" />
    <glyph glyph-name="_375" unicode="&#x394;" horiz-adv-x="693" 
d="M351 700l328 -700h-687l326 700h33zM335 666l-296 -636h592z" />
    <glyph glyph-name="Omega" unicode="&#x3a9;" horiz-adv-x="823" 
d="M90 0v27h160q-91 36 -140 124.5t-49 197.5q0 71 21 134.5t62.5 115t110 81.5t156.5 30t157 -30t110.5 -81.5t62.5 -115t21 -134.5q0 -109 -49.5 -197.5t-140.5 -124.5h161v-27h-243v27q115 22 176.5 112.5t63.5 208.5q1 141 -83 236.5t-236 95.5q-151 0 -235 -95.5
t-83 -236.5q2 -117 64.5 -208t177.5 -113v-27h-245z" />
    <glyph glyph-name="mu" unicode="&#x3bc;" horiz-adv-x="591" 
d="M527 0h-28l1 117q-22 -59 -76 -92t-116 -32q-58 0 -113.5 31.5t-74.5 83.5v-337h-27v724h29v-292q0 -84 55 -132t131 -49q78 -1 133.5 49t55.5 148v276h30v-495z" />
    <glyph glyph-name="pi" unicode="&#x3c0;" horiz-adv-x="655" 
d="M170 0h-30v469h-126v25h614v-25h-132v-337q0 -64 23 -90.5t89 -17.5l-3 -26q-141 -26 -139 135v336h-296v-469z" />
    <glyph glyph-name="Wgrave" unicode="&#x1e80;" horiz-adv-x="1082" 
d="M562 784h-30l-85 119h39l76 -116v-3zM286 -2l-242 702h34l229 -674l226 674h16l224 -674l232 674h35l-246 -702h-45l-117 354l-91 286l-92 -283l-119 -357h-44z" />
    <glyph glyph-name="wgrave" unicode="&#x1e81;" horiz-adv-x="814" 
d="M428 591h-29l-79 112h36l72 -109v-3zM223 0l-177 494h34l158 -453l162 453h17l160 -453l157 453h34l-176 -494h-32l-152 431l-153 -431h-32z" />
    <glyph glyph-name="Wacute" unicode="&#x1e82;" horiz-adv-x="1082" 
d="M553 783h-30v3l76 116h39zM286 -2l-242 702h34l229 -674l226 674h16l224 -674l232 674h35l-246 -702h-45l-117 354l-91 286l-92 -283l-119 -357h-44z" />
    <glyph glyph-name="wacute" unicode="&#x1e83;" horiz-adv-x="814" 
d="M415 594h-27v3l70 108h37zM223 0l-177 494h34l158 -453l162 453h17l160 -453l157 453h34l-176 -494h-32l-152 431l-153 -431h-32z" />
    <glyph glyph-name="Wdieresis" unicode="&#x1e84;" horiz-adv-x="1082" 
d="M409 839q0 17 14 24.5t28 0t14 -24.5t-14 -24.5t-28 0t-14 24.5zM615 839q0 17 14 24.5t28 0t14 -24.5t-14 -24.5t-28 0t-14 24.5zM286 -2l-242 702h34l229 -674l226 674h16l224 -674l232 674h35l-246 -702h-45l-117 354l-91 286l-92 -283l-119 -357h-44z" />
    <glyph glyph-name="wdieresis" unicode="&#x1e85;" horiz-adv-x="814" 
d="M277 665q0 17 14 24.5t28 0t14 -24.5t-14 -24.5t-28 0t-14 24.5zM483 665q0 17 14 24.5t28 0t14 -24.5t-14 -24.5t-28 0t-14 24.5zM223 0l-177 494h34l158 -453l162 453h17l160 -453l157 453h34l-176 -494h-32l-152 431l-153 -431h-32z" />
    <glyph glyph-name="Ygrave" unicode="&#x1ef2;" horiz-adv-x="650" 
d="M309 0v278l-275 422h38l253 -392l252 392h38l-274 -422v-278h-32zM349 761h-30l-85 119h39l76 -116v-3z" />
    <glyph glyph-name="ygrave" unicode="&#x1ef3;" horiz-adv-x="529" 
d="M454 494h34l-315 -736h-33l105 248l-200 488h33l184 -457zM288 588h-28l-78 110h36l70 -107v-3z" />
    <glyph glyph-name="endash" unicode="&#x2013;" horiz-adv-x="592" 
d="M76 273v30h440v-30h-440z" />
    <glyph glyph-name="emdash" unicode="&#x2014;" horiz-adv-x="702" 
d="M76 273v30h550v-30h-550z" />
    <glyph glyph-name="quoteleft" unicode="&#x2018;" horiz-adv-x="193" 
d="M112 701h29l-44 -148h-35z" />
    <glyph glyph-name="quoteright" unicode="&#x2019;" horiz-adv-x="192" 
d="M92 553h-29l44 148h35z" />
    <glyph glyph-name="quotesinglbase" unicode="&#x201a;" horiz-adv-x="202" 
d="M69 -105h-26l44 155h35z" />
    <glyph glyph-name="quotedblleft" unicode="&#x201c;" horiz-adv-x="299" 
d="M218 701h29l-44 -148h-35zM112 701h29l-44 -148h-35z" />
    <glyph glyph-name="quotedblright" unicode="&#x201d;" horiz-adv-x="298" 
d="M92 553h-29l44 148h35zM198 553h-29l44 148h35z" />
    <glyph glyph-name="quotedblbase" unicode="&#x201e;" horiz-adv-x="303" 
d="M69 -105h-26l44 155h35zM170 -105h-26l44 155h35z" />
    <glyph glyph-name="dagger" unicode="&#x2020;" horiz-adv-x="540" 
d="M505 501v-26h-221v-611h-28v611h-221v26h221v205h28v-205h221z" />
    <glyph glyph-name="daggerdbl" unicode="&#x2021;" horiz-adv-x="592" 
d="M531 500v-27h-221v-301h221v-27h-221v-279h-28v279h-221v27h221v301h-221v27h221v200h28v-200h221z" />
    <glyph glyph-name="bullet" unicode="&#x2022;" horiz-adv-x="367" 
d="M185 204q-37 0 -61.5 23t-24.5 60q0 38 24.5 61t61.5 23q35 0 59 -23.5t24 -60.5t-24 -60t-59 -23z" />
    <glyph glyph-name="ellipsis" unicode="&#x2026;" horiz-adv-x="480" 
d="M75 22q0 17 13.5 24t27.5 0t14 -24t-14 -24.5t-27.5 0t-13.5 24.5zM214 22q0 17 14 24t27.5 0t13.5 -24t-13.5 -24.5t-27.5 0t-14 24.5zM350 22q0 17 14 24t27.5 0t13.5 -24t-13.5 -24.5t-27.5 0t-14 24.5z" />
    <glyph glyph-name="perthousand" unicode="&#x2030;" horiz-adv-x="1073" 
d="M119 0l442 702h34l-442 -702h-34zM523 286q57 0 96.5 -30.5t48.5 -73.5t0 -86t-48.5 -73.5t-96.5 -30.5q-41 0 -73.5 16t-49 42t-24.5 57.5t0 63t24.5 57.5t49 42t73.5 16zM523 260q-46 0 -77 -24.5t-38.5 -60t0 -71t39 -60t77.5 -24.5t77 24.5t38.5 60t0 71t-39 60
t-77.5 24.5zM886 286q57 0 96.5 -30.5t48.5 -73.5t0 -86t-48.5 -73.5t-96.5 -30.5q-41 0 -73.5 16t-49 42t-24.5 57.5t0 63t24.5 57.5t49 42t73.5 16zM886 260q-46 0 -77 -24.5t-38.5 -60t0 -71t39 -60t77.5 -24.5t77 24.5t38.5 60t0 71t-39 60t-77.5 24.5zM192 703
q57 0 96.5 -30.5t48.5 -73.5t0 -86t-48.5 -73.5t-96.5 -30.5q-48 0 -83 22t-51 54.5t-16 70.5t16 70.5t51 54.5t83 22zM192 677q-46 0 -77 -24.5t-38.5 -60t0 -71t39 -60t77.5 -24.5t77 24.5t38.5 60t0 71t-39 60t-77.5 24.5z" />
    <glyph glyph-name="guilsinglleft" unicode="&#x2039;" horiz-adv-x="282" 
d="M192 80l-138 220l138 218h33l-134 -218l134 -220h-33z" />
    <glyph glyph-name="guilsinglright" unicode="&#x203a;" horiz-adv-x="280" 
d="M57 75l134 219l-134 219h33l137 -219l-137 -219h-33z" />
    <glyph glyph-name="fraction" unicode="&#x2044;" horiz-adv-x="140" 
d="M-97 -2h-32l367 704h33z" />
    <glyph glyph-name="zerosuperior" unicode="&#x2070;" horiz-adv-x="371" 
d="M45 597v51q0 75 38 116t101 41q64 0 103 -40t39 -117v-51q0 -43 -15.5 -76t-40.5 -50.5t-54.5 -25.5t-59.5 0t-55 25.5t-40.5 50.5t-15.5 76zM75 649v-52q0 -47 23 -79.5t55.5 -40.5t64.5 -1t55 40t23 81v52q0 63 -31 95t-82 32q-49 0 -78.5 -33t-29.5 -94z" />
    <glyph glyph-name="foursuperior" unicode="&#x2074;" horiz-adv-x="336" 
d="M216 802h37v-235h48v-29h-48v-89h-30v89h-193l-6 21zM66 567h157v199z" />
    <glyph glyph-name="fivesuperior" unicode="&#x2075;" horiz-adv-x="351" 
d="M83 665h90q73 0 106.5 -29.5t33.5 -77.5q0 -49 -34 -81t-106 -32q-53 0 -90.5 22t-38.5 76h29q-1 -38 28 -54t73 -16q60 0 84.5 25t24.5 59q0 32 -24.5 56t-85.5 24h-119v165h241v-29h-212v-108z" />
    <glyph glyph-name="sixsuperior" unicode="&#x2076;" horiz-adv-x="364" 
d="M82 694v-83q17 23 47 36t61 13q55 0 94.5 -28t39.5 -82t-39 -81t-94 -27q-58 0 -98 27t-40 82v143q0 57 38 85t94 28q55 0 91 -22t40 -65h-29q-2 27 -28 43t-74 16q-47 0 -75 -22t-28 -63zM191 471q39 0 71 20t32 59q0 43 -32 62.5t-72 19.5q-37 0 -70.5 -22t-34.5 -59
q0 -41 32.5 -60.5t73.5 -19.5z" />
    <glyph glyph-name="sevensuperior" unicode="&#x2077;" horiz-adv-x="305" 
d="M28 773v29h255l4 -18l-190 -335h-34l186 324h-221z" />
    <glyph glyph-name="eightsuperior" unicode="&#x2078;" horiz-adv-x="375" 
d="M44 538q0 38 24 61t60 30q-33 7 -55 27.5t-22 54.5q0 48 40.5 71.5t96.5 23.5q57 0 97 -23t40 -72q0 -35 -20 -53.5t-57 -28.5q35 -6 59 -30t24 -60q0 -53 -43.5 -77.5t-99.5 -24.5t-99.5 24t-44.5 77zM294 711q0 67 -106 67q-42 0 -74 -15t-32 -52q-1 -34 31.5 -50.5
t74.5 -16.5q41 0 73.5 16.5t32.5 50.5zM300 539q0 39 -34.5 57t-78.5 18q-42 0 -77 -19t-35 -57q0 -28 23 -45.5t45.5 -22t44.5 -4.5t44 4.5t45 22t23 46.5z" />
    <glyph glyph-name="ninesuperior" unicode="&#x2079;" horiz-adv-x="364" 
d="M282 555v83q-17 -23 -47 -36t-61 -13q-56 0 -94.5 27.5t-38.5 82.5q0 50 39.5 79t92.5 29q58 0 98 -27t40 -82v-143q0 -57 -39.5 -85t-95.5 -28q-55 0 -90.5 22t-39.5 65h29q2 -27 27.5 -43t73.5 -16q47 0 76.5 22t29.5 63zM173 778q-40 0 -71 -19t-31 -60
q0 -45 31 -63.5t72 -18.5q37 0 70.5 22t34.5 59q0 43 -32 61.5t-74 18.5z" />
    <glyph glyph-name="zeroinferior" unicode="&#x2080;" horiz-adv-x="373" 
d="M46 64v51q0 75 38 116t101 41q64 0 103 -40t39 -117v-51q0 -43 -15.5 -76t-40.5 -50.5t-55 -25.5t-59.5 0t-54.5 25.5t-40.5 50.5t-15.5 76zM76 116v-52q0 -47 23 -79.5t55.5 -40.5t64.5 -1t55 40t23 81v52q0 63 -31 95t-82 32q-49 0 -78.5 -33t-29.5 -94z" />
    <glyph glyph-name="oneinferior" unicode="&#x2081;" horiz-adv-x="220" 
d="M36 -88v28h63v287l-56 -12v28l86 20v-323h65v-28h-158z" />
    <glyph glyph-name="twoinferior" unicode="&#x2082;" horiz-adv-x="350" 
d="M305 -88h-261v76q0 51 36 79.5t100 28.5q50 0 73 14.5t23 56.5q0 75 -99 75q-44 0 -71.5 -15.5t-26.5 -60.5h-30q0 105 128 105q51 0 90 -24t39 -80q0 -98 -126 -98q-106 0 -106 -80v-48h231v-29z" />
    <glyph glyph-name="threeinferior" unicode="&#x2083;" horiz-adv-x="347" 
d="M78 174l-30 1q3 49 36.5 71.5t85.5 22.5q54 0 90 -24t36 -70q0 -28 -18 -49.5t-44 -28.5q29 -10 49 -33t20 -54q0 -54 -38 -78t-95 -24q-56 0 -92.5 24.5t-38.5 78.5h30q0 -23 11 -39t29 -23.5t32.5 -10t28.5 -2.5q101 0 102 75q0 33 -30 52t-68 19h-55v29h53
q33 0 63.5 17t30.5 48q0 30 -26 47t-70 17q-90 0 -92 -66z" />
    <glyph glyph-name="fourinferior" unicode="&#x2084;" horiz-adv-x="336" 
d="M216 265h37v-235h49v-29h-49v-89h-30v89h-193l-6 21zM64 30h159v197z" />
    <glyph glyph-name="fiveinferior" unicode="&#x2085;" horiz-adv-x="349" 
d="M82 128h90q73 0 106.5 -29.5t33.5 -77.5q0 -49 -34 -81t-106 -32q-53 0 -90.5 22t-38.5 76h29q-1 -38 28 -54t73 -16q60 0 84.5 25t24.5 59q0 32 -24.5 56t-85.5 24h-119v165h241v-29h-212v-108z" />
    <glyph glyph-name="sixinferior" unicode="&#x2086;" horiz-adv-x="363" 
d="M81 160v-83q17 23 47 36t61 13q55 0 94.5 -28t39.5 -82t-39 -81t-94 -27q-58 0 -98 27t-40 82v143q0 57 38 85t94 28q55 0 91 -22t40 -65h-29q-2 27 -28 43t-74 16q-47 0 -75 -22t-28 -63zM190 -63q39 0 71 20t32 59q0 43 -32 62.5t-72 19.5q-37 0 -70.5 -22t-34.5 -59
q0 -41 32.5 -60.5t73.5 -19.5z" />
    <glyph glyph-name="seveninferior" unicode="&#x2087;" horiz-adv-x="306" 
d="M29 236v29h255l4 -18l-190 -335h-34l186 324h-221z" />
    <glyph glyph-name="eightinferior" unicode="&#x2088;" horiz-adv-x="374" 
d="M43 8q0 38 24 61t60 30q-33 7 -55 27.5t-22 54.5q0 47 42 71t95 24t95 -23t42 -72q0 -35 -20 -53.5t-57 -28.5q35 -6 59 -30t24 -60q0 -53 -43.5 -77.5t-99.5 -24.5t-99.5 24t-44.5 77zM293 181q0 37 -33 51.5t-73 14.5q-39 0 -72.5 -14.5t-33.5 -51.5q-1 -34 31.5 -50.5
t74.5 -16.5q41 0 73.5 16.5t32.5 50.5zM299 9q0 39 -34.5 57t-78.5 18q-42 0 -77 -19t-35 -57q0 -28 23 -45.5t45.5 -22t44.5 -4.5t44 4.5t45 22t23 46.5z" />
    <glyph glyph-name="nineinferior" unicode="&#x2089;" horiz-adv-x="364" 
d="M281 23v83q-17 -23 -47 -36t-61 -13q-56 0 -94.5 27.5t-38.5 82.5q0 50 39.5 79t92.5 29q58 0 98 -27t40 -82v-143q0 -57 -38 -85t-94 -28q-55 0 -91 22t-40 65h29q2 -27 28 -43t74 -16q47 0 75 22t28 63zM172 246q-40 0 -71 -19t-31 -60q0 -45 31 -63.5t72 -18.5
q37 0 70.5 22t34.5 59q0 43 -32 61.5t-74 18.5z" />
    <glyph glyph-name="Euro" unicode="&#x20ac;" horiz-adv-x="626" 
d="M44 392v30h72q20 126 109.5 206t242.5 80q44 0 84 -10l-5 -29q-39 9 -79 9q-138 0 -219 -70.5t-100 -185.5h291l-8 -30h-287q-2 -15 -2 -45q0 -25 3 -47h279l-9 -30h-266q21 -111 100 -178.5t214 -67.5q53 0 108 20l7 -29q-59 -21 -115 -21q-150 0 -237.5 76t-109.5 200
h-73v30h69q-2 30 -2 46q0 31 2 46h-69z" />
    <glyph glyph-name="afii61289" unicode="&#x2113;" horiz-adv-x="370" 
d="M166 242v-95q0 -133 134 -97v-38q-86 -29 -138.5 5t-52.5 128v65l-49 -24l-14 39q34 14 62 30v307q0 75 31.5 114t91.5 39t83 -48t19 -123q-6 -90 -46 -158t-121 -144zM162 562v-265q126 110 126 252q2 123 -57 123q-69 0 -69 -110z" />
    <glyph glyph-name="uni2117" unicode="&#x2117;" horiz-adv-x="842" 
d="M421 712q168 0 264.5 -104.5t96.5 -260.5q0 -155 -96.5 -260t-264.5 -105q-167 0 -264 105t-97 260q0 156 96.5 260.5t264.5 104.5zM95 347q0 -144 87.5 -239t238.5 -95t239 95t88 239q0 145 -88 240.5t-239 95.5t-238.5 -95.5t-87.5 -240.5zM335 292h131q50 0 82.5 25
t39.5 60.5t-1 71t-40 60.5t-77 25h-169v-385h34v143zM335 323v177h135q34 0 57.5 -18t28.5 -44t-1 -52.5t-30 -44.5t-59 -18h-131z" />
    <glyph glyph-name="trademark" unicode="&#x2122;" horiz-adv-x="781" 
d="M179 423v251h-117v26h265v-26h-120v-251h-28zM396 423v277h25l124 -163l128 163h20v-277h-30v219l-116 -144h-6l-116 149v-224h-29z" />
    <glyph glyph-name="estimated" unicode="&#x212e;" horiz-adv-x="655" 
d="M526 133l37 -29q-43 -61 -98 -86t-129 -25q-116 0 -192 78t-76 218q0 142 75.5 219.5t191.5 77.5q58 0 106.5 -17t87 -53t57 -100.5t11.5 -152.5h-402v-170q58 -53 141 -53q125 0 190 93zM482 307v191q-56 44 -147 44q-90 0 -144 -47v-188h291z" />
    <glyph glyph-name="uni2153" unicode="&#x2153;" horiz-adv-x="719" 
d="M161 -2h-33l368 704h33zM51 359v27h64v282l-56 -12v27l86 20v-317h68v-27h-162zM450 264l-30 1q3 49 36.5 71.5t85.5 22.5q54 0 90 -24t36 -70q0 -28 -18 -49.5t-44 -28.5q29 -10 49 -33t20 -54q0 -54 -38 -78t-95 -24q-56 0 -92.5 24.5t-38.5 78.5h30q0 -23 11 -39
t29 -23.5t32.5 -10t28.5 -2.5q101 0 102 75q0 33 -30 52t-68 19h-55v29h53q33 0 63.5 17t30.5 48q0 30 -26 47t-70 17q-90 0 -92 -66z" />
    <glyph glyph-name="uni2154" unicode="&#x2154;" horiz-adv-x="801" 
d="M243 -2h-33l368 704h33zM532 264l-30 1q3 49 36.5 71.5t85.5 22.5q54 0 90 -24t36 -70q0 -28 -18 -49.5t-44 -28.5q29 -10 49 -33t20 -54q0 -54 -38 -78t-95 -24q-56 0 -92.5 24.5t-38.5 78.5h30q0 -23 11 -39t29 -23.5t32.5 -10t28.5 -2.5q101 0 102 75q0 33 -30 52
t-68 19h-55v29h53q33 0 63.5 17t30.5 48q0 30 -26 47t-70 17q-90 0 -92 -66zM306 350h-252v76q0 51 36 79.5t100 28.5q50 0 73 14.5t23 56.5q0 75 -99 75q-44 0 -71.5 -15.5t-26.5 -60.5h-30q0 105 128 105q51 0 90 -24t39 -80q0 -98 -126 -98q-106 0 -106 -80v-48h222v-29z
" />
    <glyph glyph-name="oneeighth" unicode="&#x215b;" horiz-adv-x="756" 
d="M161 -2h-33l368 704h33zM51 359v27h64v282l-56 -12v27l86 20v-317h68v-27h-162zM424 98q0 38 24 61t60 30q-33 7 -55 27.5t-22 54.5q0 47 42 71t95 24t95 -23t42 -72q0 -35 -20 -53.5t-57 -28.5q35 -6 59 -30t24 -60q0 -53 -43.5 -77.5t-99.5 -24.5t-99.5 24t-44.5 77z
M674 271q0 37 -33 51.5t-73 14.5q-39 0 -72.5 -14.5t-33.5 -51.5q-1 -34 31.5 -50.5t74.5 -16.5q41 0 73.5 16.5t32.5 50.5zM680 99q0 39 -34.5 57t-78.5 18q-42 0 -77 -19t-35 -57q0 -28 23 -45.5t45.5 -22t44.5 -4.5t44 4.5t45 22t23 46.5z" />
    <glyph glyph-name="threeeighths" unicode="&#x215c;" horiz-adv-x="823" 
d="M228 -2h-33l368 704h33zM491 98q0 38 24 61t60 30q-33 7 -55 27.5t-22 54.5q0 47 42 71t95 24t95 -23t42 -72q0 -35 -20 -53.5t-57 -28.5q35 -6 59 -30t24 -60q0 -53 -43.5 -77.5t-99.5 -24.5t-99.5 24t-44.5 77zM741 271q0 37 -33 51.5t-73 14.5q-39 0 -72.5 -14.5
t-33.5 -51.5q-1 -34 31.5 -50.5t74.5 -16.5q41 0 73.5 16.5t32.5 50.5zM747 99q0 39 -34.5 57t-78.5 18q-42 0 -77 -19t-35 -57q0 -28 23 -45.5t45.5 -22t44.5 -4.5t44 4.5t45 22t23 46.5zM86 609l-30 1q3 49 36.5 71.5t85.5 22.5q54 0 90 -24t36 -70q0 -28 -18 -49.5
t-44 -28.5q29 -10 49 -33t20 -54q0 -54 -38 -78t-95 -24q-56 0 -92.5 24.5t-38.5 78.5h30q0 -23 11 -39t29 -23.5t32.5 -10t28.5 -2.5q101 0 102 75q0 33 -30 52t-68 19h-55v29h53q33 0 63.5 17t30.5 48q0 30 -26 47t-70 17q-90 0 -92 -66z" />
    <glyph glyph-name="fiveeighths" unicode="&#x215d;" horiz-adv-x="827" 
d="M232 -2h-33l368 704h33zM495 98q0 38 24 61t60 30q-33 7 -55 27.5t-22 54.5q0 47 42 71t95 24t95 -23t42 -72q0 -35 -20 -53.5t-57 -28.5q35 -6 59 -30t24 -60q0 -53 -43.5 -77.5t-99.5 -24.5t-99.5 24t-44.5 77zM745 271q0 37 -33 51.5t-73 14.5q-39 0 -72.5 -14.5
t-33.5 -51.5q-1 -34 31.5 -50.5t74.5 -16.5q41 0 73.5 16.5t32.5 50.5zM751 99q0 39 -34.5 57t-78.5 18q-42 0 -77 -19t-35 -57q0 -28 23 -45.5t45.5 -22t44.5 -4.5t44 4.5t45 22t23 46.5zM88 564h90q73 0 106.5 -29.5t33.5 -77.5q0 -49 -34 -81t-106 -32q-53 0 -90.5 22
t-38.5 76h29q-1 -38 28 -54t73 -16q60 0 84.5 25t24.5 59q0 32 -24.5 56t-85.5 24h-119v165h241v-29h-212v-108z" />
    <glyph glyph-name="seveneighths" unicode="&#x215e;" horiz-adv-x="752" 
d="M146 -2h-33l368 704h33zM421 98q0 38 24 61t60 30q-33 7 -55 27.5t-22 54.5q0 47 42 71t95 24t95 -23t42 -72q0 -35 -20 -53.5t-57 -28.5q35 -6 59 -30t24 -60q0 -53 -43.5 -77.5t-99.5 -24.5t-99.5 24t-44.5 77zM671 271q0 37 -33 51.5t-73 14.5q-39 0 -72.5 -14.5
t-33.5 -51.5q-1 -34 31.5 -50.5t74.5 -16.5q41 0 73.5 16.5t32.5 50.5zM677 99q0 39 -34.5 57t-78.5 18q-42 0 -77 -19t-35 -57q0 -28 23 -45.5t45.5 -22t44.5 -4.5t44 4.5t45 22t23 46.5zM40 672v29h255l4 -18l-190 -335h-34l186 324h-221z" />
    <glyph glyph-name="arrowleft" unicode="&#x2190;" horiz-adv-x="660" 
d="M263 146l-205 205l205 205l20 -20l-165 -168h463v-34h-462l165 -167z" />
    <glyph glyph-name="arrowup" unicode="&#x2191;" horiz-adv-x="478" 
d="M34 406l205 205l205 -205l-19 -20l-169 165v-463h-34v462l-167 -165z" />
    <glyph glyph-name="arrowright" unicode="&#x2192;" horiz-adv-x="660" 
d="M397 556l205 -205l-205 -205l-20 20l165 168h-463v35h461l-164 166z" />
    <glyph glyph-name="arrowdown" unicode="&#x2193;" horiz-adv-x="480" 
d="M445 283l-205 -205l-205 205l20 20l168 -165v463h35v-461l166 164z" />
    <glyph glyph-name="uni2196" unicode="&#x2196;" horiz-adv-x="499" 
d="M70 247v291h289v-32h-234l327 -327l-25 -25l-327 327v-234h-30z" />
    <glyph glyph-name="uni2197" unicode="&#x2197;" horiz-adv-x="499" 
d="M429 538v-291h-32v234l-326 -327l-24 25l326 328h-235v31h291z" />
    <glyph glyph-name="uni2198" unicode="&#x2198;" horiz-adv-x="500" 
d="M411 456v-291h-290v32h235l-327 327l25 24l327 -327v235h30z" />
    <glyph glyph-name="uni2199" unicode="&#x2199;" horiz-adv-x="500" 
d="M89 165v291h31v-235l326 327l25 -24l-327 -328h236v-31h-291z" />
    <glyph glyph-name="partialdiff" unicode="&#x2202;" horiz-adv-x="616" 
d="M561 255q2 -117 -68 -190t-188 -73q-120 0 -186.5 73t-66.5 175q0 103 66.5 178t187.5 76q71 0 129 -33.5t85 -88.5q-37 108 -116.5 186.5t-184.5 113.5l12 27q152 -61 239.5 -174t90.5 -270zM305 21q106 0 165.5 65.5t59.5 154.5q0 90 -60 157t-165 67t-164 -66.5
t-59 -157.5q0 -93 58.5 -156.5t164.5 -63.5z" />
    <glyph glyph-name="increment" unicode="&#x2206;" horiz-adv-x="724" 
d="M381 700l314 -700h-666l314 700h38zM361 671l-282 -642h566z" />
    <glyph glyph-name="product" unicode="&#x220f;" horiz-adv-x="682" 
d="M580 -187h-35v856h-408v-856h-35v887h478v-887z" />
    <glyph glyph-name="summation" unicode="&#x2211;" horiz-adv-x="574" 
d="M322 368l-235 -337h430v-31h-481v10l250 359l-230 323v8h455v-30h-403z" />
    <glyph glyph-name="minus" unicode="&#x2212;" horiz-adv-x="531" 
d="M80 338v30h371v-30h-371z" />
    <glyph glyph-name="uni2215" unicode="&#x2215;" horiz-adv-x="401" 
d="M34 -2h-32l367 704h33z" />
    <glyph glyph-name="uni2219" unicode="&#x2219;" horiz-adv-x="212" 
d="M76 309q0 19 15 26.5t30 0t15 -26.5t-15 -26.5t-30 0t-15 26.5z" />
    <glyph glyph-name="radical" unicode="&#x221a;" horiz-adv-x="607" 
d="M591 701l-243 -701h-33l-176 382l-101 -45l-10 27l130 57l172 -388l234 676z" />
    <glyph glyph-name="infinity" unicode="&#x221e;" horiz-adv-x="815" 
d="M226 173q-77 0 -120 45t-42 108t45 110t121 47q28 0 53.5 -10.5t50.5 -34t39 -39.5t39 -47q31 39 52.5 62t57 44.5t69.5 21.5q77 0 119.5 -43t42.5 -106q0 -64 -42 -111t-120 -47q-36 0 -71.5 22.5t-55 43.5t-53.5 64q-48 -60 -91.5 -95t-93.5 -35zM225 202
q12 0 23.5 2.5t20.5 6t20.5 12t18.5 14t20.5 19t20 20.5t23 25t23.5 26q-54 68 -88.5 96t-78.5 28q-62 0 -96.5 -36t-34.5 -88q0 -119 128 -125zM590 202q65 2 100.5 39t33.5 90q-1 53 -35.5 86t-97.5 33q-37 0 -64.5 -18t-60.5 -58.5t-38 -45.5q14 -15 42 -47.5t40 -43.5
t34 -23t46 -12z" />
    <glyph glyph-name="integral" unicode="&#x222b;" horiz-adv-x="435" 
d="M193 -1v539q0 76 30.5 119.5t108.5 43.5q49 0 90 -33l-19 -22q-42 25 -76 25q-104 0 -104 -133v-539q0 -31 -2 -52t-9 -44t-19.5 -36.5t-35.5 -22.5t-56 -9q-45 0 -89 35l18 20q30 -26 76 -26q49 0 68 32t19 103z" />
    <glyph glyph-name="approxequal" unicode="&#x2248;" horiz-adv-x="612" 
d="M507 423l26 -12q-25 -58 -71 -69.5t-113 19.5l-82 46q-53 28 -98.5 12.5t-65.5 -63.5l-23 10q19 58 75 79.5t128 -14.5l79 -44q46 -26 84 -19.5t61 55.5zM507 255l26 -12q-25 -58 -71 -69.5t-113 19.5l-82 46q-53 28 -98.5 12.5t-65.5 -63.5l-23 10q19 58 75 79.5
t128 -14.5l79 -44q46 -26 84 -19.5t61 55.5z" />
    <glyph glyph-name="notequal" unicode="&#x2260;" horiz-adv-x="554" 
d="M80 205v27h122l111 170h-233v28h249l43 64l23 -14l-32 -50h108v-28h-125l-110 -170h235v-27h-254l-45 -70l-25 14l36 56h-103z" />
    <glyph glyph-name="lessequal" unicode="&#x2264;" horiz-adv-x="452" 
d="M90 412l243 156l14 -20l-226 -144l227 -155l-14 -22l-244 169v16zM86 106v26h280v-26h-280z" />
    <glyph glyph-name="greaterequal" unicode="&#x2265;" horiz-adv-x="453" 
d="M120 568l243 -156v-16l-244 -166l-14 19l226 154l-225 146zM367 132v-26h-280v26h280z" />
    <glyph glyph-name="lozenge" unicode="&#x25ca;" horiz-adv-x="548" 
d="M508 352l-223 -345h-25l-217 345l217 344h25zM272 662l-192 -310l191 -312l202 311z" />
    <glyph glyph-name="fi" unicode="&#xfb01;" horiz-adv-x="526" 
d="M347 683l-12 -27q-27 15 -63 15q-104 0 -104 -133v-47h158v-27h-158v-464h-30v464h-103v27h103v47q0 76 30.5 119.5t108.5 43.5q37 0 70 -18zM398 661q0 17 14 24.5t28.5 0t14.5 -24.5q0 -18 -14.5 -25.5t-28.5 0t-14 25.5zM410 496h31v-496h-31v496z" />
    <glyph glyph-name="fl" unicode="&#xfb02;" horiz-adv-x="519" 
d="M345 681l-14 -24q-27 15 -59 15q-104 0 -104 -134v-47h156v-27h-156v-464h-30v464h-103v27h103v47q0 76 30.5 119.5t108.5 43.5q36 0 68 -20zM395 700h31v-700h-31v700z" />
    <glyph glyph-name="a.alt" horiz-adv-x="552" 
d="M97 437l-5 27q88 35 159 35q99 0 160 -45t61 -140v-314h-30v118q-58 -107 -168 -123q-51 -9 -102.5 1.5t-91 49.5t-39.5 101q0 78 59 117t143 39q103 0 199 -47v58q0 156 -191 156q-77 0 -154 -33zM443 226q-96 48 -201 48q-72 0 -121.5 -31.5t-49.5 -95.5q1 -49 34 -81
t77.5 -41.5t89.5 -0.5q71 11 118.5 68t52.5 134z" />
    <glyph glyph-name="aacute.alt" horiz-adv-x="552" 
d="M266 588h-26v4l71 108h37zM97 437l-5 27q88 35 159 35q99 0 160 -45t61 -140v-314h-30v118q-58 -107 -168 -123q-51 -9 -102.5 1.5t-91 49.5t-39.5 101q0 78 59 117t143 39q103 0 199 -47v58q0 156 -191 156q-77 0 -154 -33zM443 226q-96 48 -201 48q-72 0 -121.5 -31.5
t-49.5 -95.5q1 -49 34 -81t77.5 -41.5t89.5 -0.5q71 11 118.5 68t52.5 134z" />
    <glyph glyph-name="abreve.alt" horiz-adv-x="552" 
d="M362 703h28q-2 -53 -32 -83.5t-85 -30.5q-114 0 -117 114h25q0 -88 92 -88q89 1 89 88zM97 437l-5 27q88 35 159 35q99 0 160 -45t61 -140v-314h-30v118q-58 -107 -168 -123q-51 -9 -102.5 1.5t-91 49.5t-39.5 101q0 78 59 117t143 39q103 0 199 -47v58q0 156 -191 156
q-77 0 -154 -33zM443 226q-96 48 -201 48q-72 0 -121.5 -31.5t-49.5 -95.5q1 -49 34 -81t77.5 -41.5t89.5 -0.5q71 11 118.5 68t52.5 134z" />
    <glyph glyph-name="acircumflex.alt" horiz-adv-x="552" 
d="M122 577v6l125 118h30l127 -118v-6h-32l-110 100l-110 -100h-30zM97 437l-5 27q88 35 159 35q99 0 160 -45t61 -140v-314h-30v118q-58 -107 -168 -123q-51 -9 -102.5 1.5t-91 49.5t-39.5 101q0 78 59 117t143 39q103 0 199 -47v58q0 156 -191 156q-77 0 -154 -33z
M443 226q-96 48 -201 48q-72 0 -121.5 -31.5t-49.5 -95.5q1 -49 34 -81t77.5 -41.5t89.5 -0.5q71 11 118.5 68t52.5 134z" />
    <glyph glyph-name="adieresis.alt" horiz-adv-x="552" 
d="M346 666q0 17 14 24.5t28 0t14 -24.5t-14 -24.5t-28 0t-14 24.5zM97 437l-5 27q88 35 159 35q99 0 160 -45t61 -140v-314h-30v118q-58 -107 -168 -123q-51 -9 -102.5 1.5t-91 49.5t-39.5 101q0 78 59 117t143 39q103 0 199 -47v58q0 156 -191 156q-77 0 -154 -33z
M443 226q-96 48 -201 48q-72 0 -121.5 -31.5t-49.5 -95.5q1 -49 34 -81t77.5 -41.5t89.5 -0.5q71 11 118.5 68t52.5 134zM156 666q0 17 14 24.5t28 0t14 -24.5t-14 -24.5t-28 0t-14 24.5z" />
    <glyph glyph-name="agrave.alt" horiz-adv-x="552" 
d="M270 587l-74 112h39l63 -108v-4h-28zM97 437l-5 27q88 35 159 35q99 0 160 -45t61 -140v-314h-30v118q-58 -107 -168 -123q-51 -9 -102.5 1.5t-91 49.5t-39.5 101q0 78 59 117t143 39q103 0 199 -47v58q0 156 -191 156q-77 0 -154 -33zM443 226q-96 48 -201 48
q-72 0 -121.5 -31.5t-49.5 -95.5q1 -49 34 -81t77.5 -41.5t89.5 -0.5q71 11 118.5 68t52.5 134z" />
    <glyph glyph-name="amacron.alt" horiz-adv-x="552" 
d="M143 648v28h256v-28h-256zM97 437l-5 27q88 35 159 35q99 0 160 -45t61 -140v-314h-30v118q-58 -107 -168 -123q-51 -9 -102.5 1.5t-91 49.5t-39.5 101q0 78 59 117t143 39q103 0 199 -47v58q0 156 -191 156q-77 0 -154 -33zM443 226q-96 48 -201 48q-72 0 -121.5 -31.5
t-49.5 -95.5q1 -49 34 -81t77.5 -41.5t89.5 -0.5q71 11 118.5 68t52.5 134z" />
    <glyph glyph-name="aogonek.alt" horiz-adv-x="552" 
d="M443 226q-96 48 -201 48q-72 0 -121.5 -31.5t-49.5 -95.5q1 -49 34 -81t77.5 -41.5t89.5 -0.5q71 11 118.5 68t52.5 134zM97 437l-5 27q88 35 159 35q99 0 160 -45t61 -140v-340q-63 6 -90 -20.5t-19 -56.5q5 -19 23.5 -30.5t47.5 -10.5q56 4 83 49l19 -21
q-31 -49 -98 -54q-44 -1 -69 16t-32 43q-10 41 20.5 74t85.5 34v121q-58 -107 -169 -123q-51 -9 -102.5 1.5t-91 49.5t-39.5 101q0 78 59 117t143 39q103 0 199 -47v58q0 156 -191 156q-77 0 -154 -33z" />
    <glyph glyph-name="aring.alt" horiz-adv-x="552" 
d="M97 437l-5 27q88 35 159 35q99 0 160 -45t61 -140v-314h-30v118q-58 -107 -168 -123q-51 -9 -102.5 1.5t-91 49.5t-39.5 101q0 78 59 117t143 39q103 0 199 -47v58q0 156 -191 156q-77 0 -154 -33zM443 226q-96 48 -201 48q-72 0 -121.5 -31.5t-49.5 -95.5q1 -49 34 -81
t77.5 -41.5t89.5 -0.5q71 11 118.5 68t52.5 134zM330 636q0 20 -12.5 34.5t-30 18t-35.5 0.5t-30.5 -17.5t-12.5 -36.5q0 -20 12.5 -33.5t30.5 -16.5t35.5 0t30 17t12.5 34zM356 636q0 -29 -17.5 -48.5t-43 -24t-51 0t-43 24t-17.5 47.5q0 50 43 69t86 -1.5t43 -66.5z" />
    <glyph glyph-name="aringacute.alt" horiz-adv-x="552" 
d="M268 741v3l67 87h33v-1l-73 -89h-27zM97 437l-5 27q88 35 159 35q99 0 160 -45t61 -140v-314h-30v118q-58 -107 -168 -123q-51 -9 -102.5 1.5t-91 49.5t-39.5 101q0 78 59 117t143 39q103 0 199 -47v58q0 156 -191 156q-77 0 -154 -33zM443 226q-96 48 -201 48
q-72 0 -121.5 -31.5t-49.5 -95.5q1 -49 34 -81t77.5 -41.5t89.5 -0.5q71 11 118.5 68t52.5 134zM341 627q0 20 -12.5 34.5t-30.5 18t-35.5 0.5t-30 -17.5t-12.5 -36.5q0 -20 12.5 -33.5t30 -16.5t35.5 0t30.5 17t12.5 34zM367 627q0 -29 -17.5 -48.5t-43 -24t-51 0t-43 24
t-17.5 47.5q0 30 17.5 50t43 24.5t51 -1t43 -25t17.5 -47.5z" />
    <glyph glyph-name="atilde.alt" horiz-adv-x="552" 
d="M97 437l-5 27q88 35 159 35q99 0 160 -45t61 -140v-314h-30v118q-58 -107 -168 -123q-51 -9 -102.5 1.5t-91 49.5t-39.5 101q0 78 59 117t143 39q103 0 199 -47v58q0 156 -191 156q-77 0 -154 -33zM443 226q-96 48 -201 48q-72 0 -121.5 -31.5t-49.5 -95.5q1 -49 34 -81
t77.5 -41.5t89.5 -0.5q71 11 118.5 68t52.5 134zM261 689l42 -23q53 -28 70 27l21 -8q-10 -40 -37 -52t-67 9l-42 23q-54 30 -70 -24l-21 8q10 38 37 49.5t67 -9.5z" />
    <glyph glyph-name="g.alt" 
d="M546 -16q0 -113 -68 -175t-172 -62q-100 0 -162.5 46.5t-67.5 123.5h29q5 -68 59.5 -104.5t141.5 -36.5q88 0 149.5 51.5t61.5 154.5v81l5 71q-24 -68 -87 -104t-133 -35q-106 0 -178 69t-72 183q0 113 71.5 183t176.5 70q74 0 138.5 -38.5t83.5 -107.5l-6 80v60h30v-510
zM299 471q-93 0 -155 -61t-62 -163t63.5 -162.5t157.5 -60.5q106 0 160 65t54 163q0 93 -57 156t-161 63z" />
    <glyph glyph-name="gbreve.alt" 
d="M414 705h29q-2 -56 -32 -86t-88 -30q-117 0 -120 116h26q0 -89 94 -89q91 0 91 89zM546 -16q0 -113 -68 -175t-172 -62q-100 0 -162.5 46.5t-67.5 123.5h29q5 -68 59.5 -104.5t141.5 -36.5q88 0 149.5 51.5t61.5 154.5v81l5 71q-24 -68 -87 -104t-133 -35q-106 0 -178 69
t-72 183q0 113 71.5 183t176.5 70q74 0 138.5 -38.5t83.5 -107.5l-6 80v60h30v-510zM299 471q-93 0 -155 -61t-62 -163t63.5 -162.5t157.5 -60.5q106 0 160 65t54 163q0 93 -57 156t-161 63z" />
    <glyph glyph-name="gcircumflex.alt" 
d="M546 -16q0 -113 -68 -175t-172 -62q-100 0 -162.5 46.5t-67.5 123.5h29q5 -68 59.5 -104.5t141.5 -36.5q88 0 149.5 51.5t61.5 154.5v81l5 71q-24 -68 -87 -104t-133 -35q-106 0 -178 69t-72 183q0 113 71.5 183t176.5 70q74 0 138.5 -38.5t83.5 -107.5l-6 80v60h30v-510
zM299 471q-93 0 -155 -61t-62 -163t63.5 -162.5t157.5 -60.5q106 0 160 65t54 163q0 93 -57 156t-161 63zM342 708l129 -121v-4h-32l-112 106l-112 -106h-32v4l129 121h30z" />
    <glyph glyph-name="gcommaaccent.alt" 
d="M546 -16q0 -113 -68 -175t-172 -62q-100 0 -162.5 46.5t-67.5 123.5h29q5 -68 59.5 -104.5t141.5 -36.5q88 0 149.5 51.5t61.5 154.5v81l5 71q-24 -68 -87 -104t-133 -35q-106 0 -178 69t-72 183q0 113 71.5 183t176.5 70q74 0 138.5 -38.5t83.5 -107.5l-6 80v60h30v-510
zM299 471q-93 0 -155 -61t-62 -163t63.5 -162.5t157.5 -60.5q106 0 160 65t54 163q0 93 -57 156t-161 63zM356 713l-30 -74q17 -5 17 -24q0 -17 -13.5 -24.5t-27.5 -0.5t-14 25q0 6 8 26l31 72h29z" />
    <glyph glyph-name="gdotaccent.alt" 
d="M284 670q0 17 14 24.5t27.5 0t13.5 -24.5t-13.5 -24t-27.5 0t-14 24zM546 -16q0 -113 -68 -175t-172 -62q-100 0 -162.5 46.5t-67.5 123.5h29q5 -68 59.5 -104.5t141.5 -36.5q88 0 149.5 51.5t61.5 154.5v81l5 71q-24 -68 -87 -104t-133 -35q-106 0 -178 69t-72 183
q0 113 71.5 183t176.5 70q74 0 138.5 -38.5t83.5 -107.5l-6 80v60h30v-510zM299 471q-93 0 -155 -61t-62 -163t63.5 -162.5t157.5 -60.5q106 0 160 65t54 163q0 93 -57 156t-161 63z" />
    <glyph glyph-name="y.alt" horiz-adv-x="601" 
d="M487 112q-28 -61 -82 -90.5t-113 -30.5q-102 0 -157.5 56t-55.5 156v291h30v-290q0 -90 48 -137.5t135 -46.5q81 1 137.5 56.5t56.5 136.5v281h30v-521q0 -106 -58 -166t-158 -60q-98 0 -152 45.5t-59 119.5h28q5 -64 52.5 -100t130.5 -36q84 0 135.5 50t51.5 147v139z
" />
    <glyph glyph-name="yacute.alt" horiz-adv-x="601" 
d="M276 583v4l69 116h35l-78 -120h-26zM487 112q-28 -61 -82 -90.5t-113 -30.5q-102 0 -157.5 56t-55.5 156v291h30v-290q0 -90 48 -137.5t135 -46.5q81 1 137.5 56.5t56.5 136.5v281h30v-521q0 -106 -58 -166t-158 -60q-98 0 -152 45.5t-59 119.5h28q5 -64 52.5 -100
t130.5 -36q84 0 135.5 50t51.5 147v139z" />
    <glyph glyph-name="ycircumflex.alt" horiz-adv-x="601" 
d="M487 112q-28 -61 -82 -90.5t-113 -30.5q-102 0 -157.5 56t-55.5 156v291h30v-290q0 -90 48 -137.5t135 -46.5q81 1 137.5 56.5t56.5 136.5v281h30v-521q0 -106 -58 -166t-158 -60q-98 0 -152 45.5t-59 119.5h28q5 -64 52.5 -100t130.5 -36q84 0 135.5 50t51.5 147v139z
M319 708l129 -121v-4h-32l-112 106l-112 -106h-32v4l129 121h30z" />
    <glyph glyph-name="ydieresis.alt" horiz-adv-x="601" 
d="M377 674q0 18 14 25.5t28 0t14 -25.5q0 -17 -14 -24t-28 0t-14 24zM487 112q-28 -61 -82 -90.5t-113 -30.5q-102 0 -157.5 56t-55.5 156v291h30v-290q0 -90 48 -137.5t135 -46.5q81 1 137.5 56.5t56.5 136.5v281h30v-521q0 -106 -58 -166t-158 -60q-98 0 -152 45.5
t-59 119.5h28q5 -64 52.5 -100t130.5 -36q84 0 135.5 50t51.5 147v139zM184 674q0 18 14 25.5t28 0t14 -25.5q0 -17 -14 -24t-28 0t-14 24z" />
    <glyph glyph-name="ygrave.alt" horiz-adv-x="601" 
d="M487 112q-28 -61 -82 -90.5t-113 -30.5q-102 0 -157.5 56t-55.5 156v291h30v-290q0 -90 48 -137.5t135 -46.5q81 1 137.5 56.5t56.5 136.5v281h30v-521q0 -106 -58 -166t-158 -60q-98 0 -152 45.5t-59 119.5h28q5 -64 52.5 -100t130.5 -36q84 0 135.5 50t51.5 147v139z
M331 587v-4h-26l-78 120h35z" />
    <glyph glyph-name="zero.denom" horiz-adv-x="373" 
d="M46 151v51q0 75 38 116t101 41q64 0 103 -40t39 -117v-51q0 -43 -15.5 -76t-40.5 -50.5t-55 -25.5t-59.5 0t-54.5 25.5t-40.5 50.5t-15.5 76zM76 203v-52q0 -47 23 -79.5t55.5 -40.5t64.5 -1t55 40t23 81v52q0 63 -31 95t-82 32q-49 0 -78.5 -33t-29.5 -94z" />
    <glyph glyph-name="one.denom" horiz-adv-x="220" 
d="M36 0v29h63v286l-56 -12v28l86 20v-322h65v-29h-158z" />
    <glyph glyph-name="two.denom" horiz-adv-x="350" 
d="M305 0h-261v76q0 51 36 79.5t100 28.5q50 0 73 14.5t23 56.5q0 75 -99 75q-44 0 -71.5 -15.5t-26.5 -60.5h-30q0 105 128 105q51 0 90 -24t39 -80q0 -98 -126 -98q-106 0 -106 -80v-48h231v-29z" />
    <glyph glyph-name="three.denom" horiz-adv-x="347" 
d="M78 263l-30 1q3 49 36.5 71.5t85.5 22.5q54 0 90 -24t36 -70q0 -28 -18 -49.5t-44 -28.5q29 -10 49 -33t20 -54q0 -54 -38 -78t-95 -24q-56 0 -92.5 24.5t-38.5 78.5h30q0 -23 11 -39t29 -23.5t32.5 -10t28.5 -2.5q101 0 102 75q0 33 -30 52t-68 19h-55v29h53
q33 0 63.5 17t30.5 48q0 30 -26 47t-70 17q-90 0 -92 -66z" />
    <glyph glyph-name="four.denom" horiz-adv-x="331" 
d="M216 353h37v-235h42v-29h-42v-89h-30v89h-193l-6 21zM64 118h159v197z" />
    <glyph glyph-name="five.denom" horiz-adv-x="349" 
d="M82 216h90q73 0 106.5 -29.5t33.5 -77.5q0 -49 -34 -81t-106 -32q-53 0 -90.5 22t-38.5 76h29q-1 -38 28 -54t73 -16q60 0 84.5 25t24.5 59q0 32 -24.5 56t-85.5 24h-119v165h241v-29h-212v-108z" />
    <glyph glyph-name="six.denom" horiz-adv-x="363" 
d="M81 247v-83q17 23 47 36t61 13q55 0 94.5 -28.5t39.5 -81.5q0 -54 -39 -81t-94 -27q-58 0 -98 27t-40 82v143q0 57 38 85t94 28q55 0 91 -22t40 -65h-29q-2 27 -28 43t-74 16q-47 0 -75 -22t-28 -63zM190 24q39 0 71 20t32 59q0 43 -32 62.5t-72 19.5q-37 0 -70.5 -22
t-34.5 -59q0 -41 32.5 -60.5t73.5 -19.5z" />
    <glyph glyph-name="seven.denom" horiz-adv-x="306" 
d="M29 324v29h255l4 -18l-190 -335h-34l186 324h-221z" />
    <glyph glyph-name="eight.denom" horiz-adv-x="374" 
d="M43 93q0 38 24 61t60 30q-33 7 -55 27.5t-22 54.5q0 47 42 71t95 24t95 -23t42 -72q0 -35 -20 -53.5t-57 -28.5q35 -6 59 -30t24 -60q0 -53 -43.5 -77.5t-99.5 -24.5t-99.5 24t-44.5 77zM293 266q0 37 -33 51.5t-73 14.5q-39 0 -72.5 -14.5t-33.5 -51.5
q-1 -34 31.5 -50.5t74.5 -16.5q41 0 73.5 16.5t32.5 50.5zM299 94q0 39 -34.5 57t-78.5 18q-42 0 -77 -19t-35 -57q0 -28 23 -45.5t45.5 -22t44.5 -4.5t44 4.5t45 22t23 46.5z" />
    <glyph glyph-name="nine.denom" horiz-adv-x="364" 
d="M281 107v83q-17 -23 -47 -36t-61 -13q-56 0 -94.5 27.5t-38.5 82.5q0 50 39.5 79t92.5 29q58 0 98 -27t40 -82v-143q0 -57 -38 -85t-94 -28q-55 0 -91 22t-40 65h29q2 -27 28 -43t74 -16q47 0 75 22t28 63zM172 330q-40 0 -71 -19t-31 -60q0 -45 31 -63.5t72 -18.5
q37 0 70.5 22t34.5 59q0 43 -32 61.5t-74 18.5z" />
    <glyph glyph-name="zero.num" horiz-adv-x="373" 
d="M46 503v51q0 75 38 116t101 41q64 0 103 -40t39 -117v-51q0 -43 -15.5 -76t-40.5 -50.5t-55 -25.5t-59.5 0t-54.5 25.5t-40.5 50.5t-15.5 76zM76 555v-52q0 -47 23 -79.5t55.5 -40.5t64.5 -1t55 40t23 81v52q0 63 -31 95t-82 32q-49 0 -78.5 -33t-29.5 -94z" />
    <glyph glyph-name="one.num" horiz-adv-x="222" 
d="M37 359v29h63v286l-56 -12v28l86 20v-322h65v-29h-158z" />
    <glyph glyph-name="two.num" horiz-adv-x="351" 
d="M306 350h-261v76q0 51 36 79.5t100 28.5q50 0 73 14.5t23 56.5q0 75 -99 75q-44 0 -71.5 -15.5t-26.5 -60.5h-30q0 105 128 105q51 0 90 -24t39 -80q0 -98 -126 -98q-106 0 -106 -80v-48h231v-29z" />
    <glyph glyph-name="three.num" horiz-adv-x="347" 
d="M78 613l-30 1q3 49 36.5 71.5t85.5 22.5q54 0 90 -24t36 -70q0 -28 -18 -49.5t-44 -28.5q29 -10 49 -33t20 -54q0 -52 -38.5 -77t-94.5 -25t-92.5 24.5t-38.5 78.5h30q0 -23 11 -39t29 -23.5t32.5 -10t28.5 -2.5q37 0 69 17t33 58q0 33 -30 52t-68 19h-55v29h53
q33 0 63.5 17t30.5 48q0 30 -26 47t-70 17q-90 0 -92 -66z" />
    <glyph glyph-name="four.num" horiz-adv-x="336" 
d="M216 701h37v-235h48v-29h-48v-89h-30v89h-193l-6 21zM66 466h157v199z" />
    <glyph glyph-name="five.num" horiz-adv-x="351" 
d="M83 563h90q73 0 106.5 -29.5t33.5 -77.5q0 -49 -34 -81t-106 -32q-53 0 -90.5 22t-38.5 76h29q-1 -38 28 -54t73 -16q60 0 84.5 25t24.5 59q0 32 -24.5 56t-85.5 24h-119v165h241v-29h-212v-108z" />
    <glyph glyph-name="six.num" horiz-adv-x="365" 
d="M83 594v-83q17 23 47 36t61 13q55 0 94.5 -28t39.5 -82t-39 -81t-94 -27q-58 0 -98 27t-40 82v143q0 57 38 85t94 28q55 0 91 -22t40 -65h-29q-2 27 -28 43t-74 16q-47 0 -75 -22t-28 -63zM192 371q39 0 71 20t32 59q0 43 -32 62.5t-72 19.5q-37 0 -70.5 -22t-34.5 -59
q0 -41 32.5 -60.5t73.5 -19.5z" />
    <glyph glyph-name="seven.num" horiz-adv-x="306" 
d="M29 672v29h255l4 -18l-190 -335h-34l186 324h-221z" />
    <glyph glyph-name="eight.num" horiz-adv-x="374" 
d="M43 440q0 38 24 61t60 30q-33 7 -55 27.5t-22 54.5q0 47 42 71t95 24t95 -23t42 -72q0 -35 -20 -53.5t-57 -28.5q35 -6 59 -30t24 -60q0 -53 -43.5 -77.5t-99.5 -24.5t-99.5 24t-44.5 77zM293 613q0 37 -33 51.5t-73 14.5q-39 0 -72.5 -14.5t-33.5 -51.5
q-1 -34 31.5 -50.5t74.5 -16.5q41 0 73.5 16.5t32.5 50.5zM299 441q0 39 -34.5 57t-78.5 18q-42 0 -77 -19t-35 -57q0 -28 23 -45.5t45.5 -22t44.5 -4.5t44 4.5t45 22t23 46.5z" />
    <glyph glyph-name="nine.num" horiz-adv-x="363" 
d="M282 456v83q-17 -23 -47 -36t-61 -13q-56 0 -94.5 27.5t-38.5 82.5q0 50 39.5 79t92.5 29q58 0 98 -27t40 -82v-143q0 -57 -39.5 -85t-95.5 -28q-55 0 -90.5 22t-39.5 65h29q2 -27 27.5 -43t73.5 -16q47 0 76.5 22t29.5 63zM173 679q-40 0 -71 -19t-31 -60
q0 -45 31 -63.5t72 -18.5q37 0 70.5 22t34.5 59q0 43 -32 61.5t-74 18.5z" />
    <glyph glyph-name="zero.tf" horiz-adv-x="680" 
d="M80 260v181q0 85 38.5 147t96.5 90t125 28t125 -28t96.5 -90t38.5 -147v-181q0 -64 -22.5 -116t-59 -83.5t-83 -49t-95.5 -17.5t-95.5 17t-83 49t-59 84t-22.5 116zM114 441v-181q0 -75 33.5 -129.5t83.5 -79t109 -24t109 25t83.5 79t33.5 128.5v181q0 56 -19.5 101.5
t-51 73.5t-72.5 43t-83 15t-83 -15t-72.5 -43t-51 -73.5t-19.5 -101.5z" />
    <glyph glyph-name="one.tf" horiz-adv-x="680" 
d="M193 0v28h140v638l-133 -32v29l168 37v-672h142v-28h-317z" />
    <glyph glyph-name="two.tf" horiz-adv-x="680" 
d="M110 153v-119h493v-34h-527v152q0 55 23.5 94t64 59t85 29t96.5 9q41 0 80.5 8.5t76 26.5t59 52t22.5 79q0 48 -23 83t-60.5 53t-76.5 26t-80 8q-40 0 -77.5 -7.5t-73 -24.5t-57 -50t-21.5 -79h-34q-1 52 22 90.5t62.5 59.5t84 31t94.5 10q51 0 97 -11t85.5 -33.5t63 -63
t24.5 -93.5q0 -63 -42.5 -109.5t-101 -67t-121.5 -20.5q-238 -2 -238 -158z" />
    <glyph glyph-name="three.tf" horiz-adv-x="680" 
d="M113 535h-31q0 51 23.5 87.5t63.5 54t81 25t89 7.5q123 0 188 -51.5t66 -126.5q0 -61 -47.5 -111t-113.5 -61q70 -11 121.5 -61t51.5 -118q0 -79 -66.5 -135.5t-196.5 -56.5q-49 0 -93 8t-86 27t-67 57t-25 91h32q0 -40 16.5 -69t39.5 -44t58.5 -24t63 -11t62.5 -2
q117 0 174.5 46.5t57.5 113.5q0 65 -64.5 114.5t-170.5 49.5h-117v29h115q108 0 166.5 49t59.5 108q1 67 -58 109t-166 42q-227 0 -227 -147z" />
    <glyph glyph-name="four.tf" horiz-adv-x="680" 
d="M488 0v164h-434l-4 33l440 503h33v-504h90v-32h-90v-164h-35zM90 196h398v452z" />
    <glyph glyph-name="five.tf" horiz-adv-x="680" 
d="M125 424h247q71 0 121.5 -19.5t76 -53t36 -68t10.5 -74.5q0 -92 -67 -152.5t-205 -60.5q-49 0 -93 9t-84.5 29.5t-65 60t-24.5 94.5h35q0 -158 232 -158q123 0 180 47t57 130q0 185 -209 185h-277v307h482v-29h-452v-247z" />
    <glyph glyph-name="six.tf" horiz-adv-x="680" 
d="M117 525v-221q80 113 239 113q69 0 128 -21t100 -70.5t41 -120.5q0 -57 -23.5 -100t-63.5 -66.5t-85.5 -34.5t-97.5 -11q-71 0 -129.5 19.5t-100.5 69.5t-42 125v317q0 89 77 137t184 48t180 -44.5t82 -124.5h-35q-6 65 -69 101.5t-159 36.5q-92 -1 -159 -41t-67 -112z
M355 27q43 0 81.5 8.5t75 27.5t58 55.5t21.5 86.5q0 47 -22 83.5t-57.5 56.5t-75 29.5t-80.5 9.5q-55 0 -107.5 -17.5t-91.5 -60t-39 -100.5q-1 -49 21 -85.5t58.5 -56t76 -28.5t81.5 -9z" />
    <glyph glyph-name="seven.tf" horiz-adv-x="680" 
d="M178 0l388 670h-470v30h509v-24l-390 -676h-37z" />
    <glyph glyph-name="eight.tf" horiz-adv-x="680" 
d="M54 177q0 75 54 124t124 61q-167 45 -167 167q0 52 26.5 90.5t69.5 58.5t87.5 29t91.5 9t91 -8.5t87.5 -28t70 -58t26.5 -92.5q0 -120 -167 -169q74 -14 125.5 -63t51.5 -120q0 -53 -27 -92t-70.5 -60t-90.5 -30.5t-97 -9.5t-97 10t-91 30.5t-70.5 60t-27.5 91.5z
M583 528q0 44 -25.5 77t-65 49.5t-78 24t-74.5 7.5t-73 -6.5t-77.5 -22.5t-66.5 -49.5t-26 -79.5q0 -42 25.5 -72.5t65 -45.5t78 -22t74.5 -7t74.5 7t78.5 22t65 45.5t25 72.5zM340 348q-35 0 -74.5 -8t-81.5 -26t-69 -53t-27 -83q0 -47 27.5 -81t70.5 -50t81 -22.5t73 -6.5
t72.5 6.5t81 22t71 49.5t28.5 82q0 45 -27.5 80.5t-69.5 53.5t-82 27t-74 9z" />
    <glyph glyph-name="nine.tf" horiz-adv-x="680" 
d="M563 177v221q-40 -56 -104.5 -84.5t-135.5 -28.5q-69 0 -128 21t-100 70.5t-41 120.5q0 57 23.5 100t63.5 66.5t85.5 34.5t97.5 11q70 0 129 -19.5t101 -69.5t42 -125v-317q0 -89 -77 -137t-184 -48t-180 44.5t-81 124.5h35q5 -65 68 -101.5t159 -36.5q92 1 159.5 41
t67.5 112zM324 675q-43 0 -81.5 -8.5t-75 -27.5t-58.5 -55.5t-22 -86.5q0 -48 22 -84.5t58 -56t75.5 -29t80.5 -9.5q40 0 80.5 10.5t76 31.5t58 56.5t23.5 79.5q0 49 -22 85.5t-58.5 56t-75.5 28.5t-81 9z" />
    <glyph glyph-name="bullet.case" horiz-adv-x="370" 
d="M186 262q-39 0 -64.5 24.5t-25.5 63.5q0 40 25.5 64.5t64.5 24.5q38 0 63 -24.5t25 -64.5q0 -39 -25 -63.5t-63 -24.5z" />
    <glyph glyph-name="periodcentered.case" horiz-adv-x="221" 
d="M80 341q0 19 15 26.5t30.5 0t15.5 -26.5t-15 -26.5t-30.5 0t-15.5 26.5z" />
    <glyph glyph-name="braceleft.case" horiz-adv-x="303" 
d="M41 375q81 0 81 126v160q0 154 139 119v-25q-52 13 -80.5 -6.5t-28.5 -87.5v-160q0 -27 -1.5 -43t-7 -38.5t-20.5 -37t-39 -20.5q19 -5 32.5 -16.5t20.5 -24t10.5 -32t4 -32t0.5 -33.5v-152q0 -68 28 -86t81 -5v-25q-139 -35 -139 116v152q0 125 -81 125v26z" />
    <glyph glyph-name="braceright.case" horiz-adv-x="303" 
d="M262 375v-26q-81 0 -81 -125v-152q0 -151 -139 -116v25q53 -13 81 5t28 86v152q0 21 0.5 33.5t4 32t10.5 32t20.5 24t32.5 16.5q-24 6 -39 20.5t-20.5 37t-7 38.5t-1.5 43v160q0 68 -28.5 87.5t-80.5 6.5v25q139 35 139 -119v-160q0 -126 81 -126z" />
    <glyph glyph-name="bracketleft.case" horiz-adv-x="309" 
d="M102 -93v880h166v-33h-131v-814h131v-33h-166z" />
    <glyph glyph-name="bracketright.case" horiz-adv-x="309" 
d="M207 787v-880h-166v33h131v814h-131v33h166z" />
    <glyph glyph-name="parenleft.case" horiz-adv-x="322" 
d="M273 806l18 -25q-199 -133 -202 -410q-2 -126 49.5 -237.5t151.5 -182.5l-16 -26q-105 68 -161 188t-56 256t55.5 253t160.5 184z" />
    <glyph glyph-name="parenright.case" horiz-adv-x="323" 
d="M33 775l18 26q105 -67 160.5 -184t55.5 -253t-56 -256t-161 -188l-16 26q101 71 152 183t49 237q-3 276 -202 409z" />
    <glyph glyph-name="emdash.case" horiz-adv-x="707" 
d="M79 331v30h549v-30h-549z" />
    <glyph glyph-name="endash.case" horiz-adv-x="589" 
d="M75 329v30h439v-30h-439z" />
    <glyph glyph-name="hyphen.case" horiz-adv-x="505" 
d="M80 326v30h345v-30h-345z" />
    <glyph glyph-name="guillemotleft.case" horiz-adv-x="372" 
d="M55 322l138 218h33l-134 -218l134 -220h-33zM282 102l-138 220l138 218h32l-134 -218l134 -220h-32z" />
    <glyph glyph-name="guillemotright.case" horiz-adv-x="377" 
d="M231 332l-138 -219h-33l135 219l-135 219h33zM183 551l138 -219l-138 -219h-33l135 219l-135 219h33z" />
    <glyph glyph-name="guilsinglleft.case" horiz-adv-x="314" 
d="M205 129l-138 220l138 218h33l-134 -218l134 -220h-33z" />
    <glyph glyph-name="guilsinglright.case" horiz-adv-x="314" 
d="M246 341l-137 -220h-33l134 220l-134 219h33z" />
    <glyph glyph-name="florin.tf" horiz-adv-x="680" 
d="M343 0q0 -75 -22.5 -114.5t-92.5 -42.5q-50 0 -91 33l17 21q20 -15 34 -20.5t40 -5.5q46 2 65.5 30.5t19.5 98.5v465h-143v28h143v53q0 74 29.5 115t105.5 42q55 0 94 -33l-18 -21q-33 25 -77 25q-53 0 -78.5 -28.5t-25.5 -99.5v-53h168v-28h-168v-465z" />
    <glyph glyph-name="cent.tf" horiz-adv-x="680" 
d="M359 -84v71q-104 6 -171.5 71.5t-67.5 179.5q0 113 67 178.5t172 71.5v57h29v-57q98 -8 160 -69l-20 -19q-62 61 -155 61q-97 0 -160 -58t-63 -165q0 -109 62.5 -165.5t160.5 -56.5q93 0 159 63l20 -19q-69 -67 -163 -72v-72h-30z" />
    <glyph glyph-name="dollar.tf" horiz-adv-x="680" 
d="M326 805h32v-103q74 -2 138.5 -31.5t96.5 -86.5l-31 -20q-29 55 -89.5 79.5t-130.5 26.5q-47 0 -96 -13t-90 -49t-39 -89q1 -27 13.5 -48t30.5 -35t50 -26t60 -18.5t73 -15.5q127 -27 171 -48q97 -46 97 -148q0 -47 -24 -82.5t-63.5 -55.5t-82 -30t-87.5 -12v-97h-29v98
q-82 2 -154.5 34t-106.5 95l31 17q31 -59 101.5 -86t145.5 -27q35 0 73 7.5t76 23t62.5 46t24.5 70.5q0 27 -8 48.5t-26.5 37.5t-37 27t-49.5 20t-53 14t-59 13q-7 1 -10 2q-127 28 -172 51q-79 41 -82 122q-1 45 21 81.5t58.5 58t78.5 33t86 13.5v103z" />
    <glyph glyph-name="Euro.tf" horiz-adv-x="680" 
d="M71 392v30h72q20 126 109.5 206t242.5 80q44 0 84 -10l-5 -29q-39 9 -79 9q-138 0 -219 -70.5t-100 -185.5h291l-8 -30h-287q-2 -15 -2 -45q0 -25 3 -47h279l-9 -30h-266q21 -111 100 -178.5t214 -67.5q53 0 108 20l7 -29q-58 -21 -115 -21q-150 0 -237.5 76t-109.5 200
h-73v30h69q-2 30 -2 46q0 31 2 46h-69z" />
    <glyph glyph-name="sterling.tf" horiz-adv-x="680" 
d="M79 0v25q41 47 65 88.5t31 78t5 64.5t-11 63h-90v26h82q-29 107 -29 169q0 95 67.5 143t167.5 48q45 0 82.5 -8.5t70 -27t51 -54t18.5 -84.5h-26q0 43 -18 73.5t-48.5 45.5t-62 21t-67.5 6q-91 0 -149 -41.5t-58 -121.5q0 -21 3 -45.5t6.5 -39.5l10.5 -45t9 -39h273v-26
h-266q11 -47 11.5 -91t-22.5 -95.5t-71 -104.5h483v-28h-518z" />
    <glyph glyph-name="yen.tf" horiz-adv-x="680" 
d="M167 278v26h140l-258 396h38l253 -392l252 392h38l-257 -396h143v-26h-160v-67h160v-27h-160v-184h-32v184h-157v27h157v67h-157z" />
    <glyph glyph-name="bar.case" horiz-adv-x="240" 
d="M103 761h34v-826h-34v826z" />
    <glyph glyph-name="commaaccentcomb.alt" horiz-adv-x="440" 
d="M253 799l-34 -79q18 -10 18 -32q0 -20 -15.5 -28.5t-31.5 0t-16 28.5l43 113l-1 -2h37z" />
    <glyph glyph-name="_0004" horiz-adv-x="0" 
 />
    <glyph glyph-name="asterisk.alt" horiz-adv-x="282" 
d="M152 606l46 -60q8 -12 -3 -19t-19 3l-44 63l-47 -63q-6 -7 -13.5 -5.5t-10 8t2.5 13.5l49 60l-70 22q-7 2 -8 9t3.5 12t11.5 2l71 -21v65q0 11 12 11t12 -11v-65l72 19q7 2 11.5 -3t3 -12t-7.5 -8z" />
    </font>
</defs>
</svg>
